img image001 image001 image001 image001 image001 image001 image001 image001 image001 image001 image001 image001 image001 image001 image001

Planets Sun Sun Sun
Статистика раздачи
Автор: Nickolas3434 | Размер: 12.4 ГБ | Добавлен: 12 янв 2018
Раздают: 0    Качают: 0
Скачать торрент
Скачать торрент
Описание торрента

СообщениеДобавлено: 12 янв 2018 

Название: Медики Чикаго
Оригинальное название: Chicago Med
Год выхода: 2017
Жанр: Драма
Выпущено: США, Universal TV, Wolf Films
Режиссер: Фред Бернер, Майкл Ваксман, Тара Николь Вейр
В ролях: Оливер Платт, С. Ипейта Меркерсон, Ник Гелфусс, Йайа ДаКоста, Колин Доннелл, Брайан Ти, Торри ДеВито, Рэйчел ДиПилло, Марлайн Эффлэк, Андре Беллос
О фильме:
Сериал рассказывает о команде врачей, работающих в чикагской больнице. Каждый день им приходится работать в полном хаосе и разбираться с уникальными случаями.

Качество: WEB-DLRip 1080p
Кодек: AVC (h264), [email protected]
Видео: 1920x1080 (1.77:1), 23.976 fps, ~8423 kbps
Аудио: Rus / 48 kHz, AC3 Dolby Digital, 3/2 (L,C,R,l,r) + LFE ch, ~640 kbps avg
Продолжительность: ~ 00:42:00
Перевод: Любительский (одноголосный) - Денис Шадинский
Сведение 5.1: dilnix
Семпл
Внимание! Присутствует реклама!
При каждом добавлении создаётся новый торрент. Чтобы начать докачку новой серии, пользователям необходимо сделать следующее:
(1) остановить скачивание,
(2) удалить старый торрент у себя из клиента (старые серии удалять не надо),
(3) скачать новый торрент и запустить его у себя в клиенте вместо старого, при этом указать клиенту путь в старую папку куда и должно происходить скачивание новых серий.
Ваш клиент при этом должен произвести хеширование (проверку) старой папки (если не производит сам - помогите ему сделать это), и будет докачивать только те серии которых у вас ещё нет. Старые серии при этом не удаляются, а продолжают раздаваться!
Eсли вы уже удалили старые серии, то предотвратить повторную закачку старых серий можно, отжав галочку в соответствующих местах при запуске нового торрента. По возможности, желательно не удалять старые серии как можно дольше, чтобы релизёр не столько продолжал раздавать старые серии, а смог сконцентрироваться на новых.
Внимание! Данная раздача является авторской. Источником основного видеоряда являются релизы AMZN.WEB-DL 1080p от KINGS. Добавление заранее подготовленных видео вставок от автора озвучки происходит без перекодировки основного видеоряда, в режиме COPY. Несмотря на это, информация контейнера при таком добавлении всё равно меняется, что нужно учитывать.
Автор проекта и озвучки, Денис Шадинский, благодарит всех ценителей Чикагских сериалов, и особенно тех, кто спонсировал осуществление озвучки.
General
Unique ID : 13541559270590564479708985485516380864 (0xA30026B44D23BD80AEB0AF919B89AC0)
Complete name : Chicago.Med.S03E01.Speak.Your.Truth.1080p.AMZN.WEB-DL.Rus[shad].mkv
Format : Matroska
Format version : Version 4 / Version 2
File size : 2.69 GiB
Duration : 41 min 35 s
Overall bit rate : 9 247 kb/s
Writing application : Lavf57.71.100
Writing library : Lavf57.71.100
ErrorDetectionType : Per level 1
Video
ID : 1
Format : AVC
Format/Info : Advanced Video Codec
Format profile : [email protected]
Format settings : CABAC / 4 Ref Frames
Format settings, CABAC : Yes
Format settings, ReFrames : 4 frames
Codec ID : V_MPEG4/ISO/AVC
Duration : 41 min 35 s
Bit rate : 8 423 kb/s
Width : 1 920 pixels
Height : 1 080 pixels
Display aspect ratio : 16:9
Frame rate mode : Variable
Color space : YUV
Chroma subsampling : 4:2:0
Bit depth : 8 bits
Scan type : Progressive
Stream size : 2.45 GiB (91%)
Writing library : x264 core 148 r2795 aaa9aa8
Encoding settings : cabac=1 / ref=3 / deblock=1:0:0 / analyse=0x3:0x113 / me=hex / subme=7 / psy=1 / psy_rd=1,00:0,00 / mixed_ref=1 / me_range=16 / chroma_me=1 / trellis=1 / 8x8dct=1 / cqm=0 / deadzone=21,11 / fast_pskip=1 / chroma_qp_offset=-2 / threads=6 / lookahead_threads=1 / sliced_threads=0 / nr=0 / decimate=1 / interlaced=0 / bluray_compat=0 / constrained_intra=0 / bframes=2 / b_pyramid=2 / b_adapt=1 / b_bias=0 / direct=1 / weightb=1 / open_gop=0 / weightp=2 / keyint=13 / keyint_min=1 / scenecut=40 / intra_refresh=0 / rc_lookahead=13 / rc=crf / mbtree=1 / crf=21,0 / qcomp=0,60 / qpmin=0 / qpmax=69 / qpstep=4 / ip_ratio=1,40 / aq=1:1,00
Default : Yes
Forced : No
Color range : Limited
Transfer characteristics : BT.709
Matrix coefficients : BT.709
Audio
ID : 2
Format : AC-3
Format/Info : Audio Coding 3
Codec ID : A_AC3
Duration : 41 min 35 s
Bit rate mode : Constant
Bit rate : 640 kb/s
Channel(s) : 6 channels
Channel positions : Front: L C R, Side: L R, LFE
Sampling rate : 48.0 kHz
Frame rate : 31.250 FPS (1536 SPF)
Bit depth : 16 bits
Compression mode : Lossy
Stream size : 190 MiB (7%)
Language : Russian
Service kind : Complete Main
Default : Yes
Forced : No



   Похожие торренты   Торрент   Размер 
В этой теме нет новых непрочитанных сообщений. Медики Чикаго / Chicago Med [03x01-04 из 23] (2017) WEB-DLRip 1080p | По версии Шадинского

9 | 13

10.17 ГБ

В этой теме нет новых непрочитанных сообщений. Медики Чикаго / Chicago Med [03x01 из 23] (2017) WEB-DLRip 1080p | По версии Шадинского

0 | 0

2.69 ГБ

В этой теме нет новых непрочитанных сообщений. Медики Чикаго / Chicago Med [03x01-03 из 23] (2017) WEB-DLRip 1080p | По версии Шадинского

0 | 0

7.8 ГБ

В этой теме нет новых непрочитанных сообщений. Медики Чикаго / Chicago Med [03x01-02 из 23] (2017) WEB-DL 1080p | По версии Шадинского

0 | 0

5.32 ГБ

В этой теме нет новых непрочитанных сообщений. Медики Чикаго / Chicago Med [03х01 из 18] (2017) WEB-DLRip от MegaPeer | По версии Шадинского

32 | 9

587.08 МБ

В этой теме нет новых непрочитанных сообщений. Медики Чикаго / Chicago Med [03х01 из 18] (2017) WEB-DLRip от MegaPeer | По версии Шадинского

0 | 0

1.16 ГБ

В этой теме нет новых непрочитанных сообщений. Медики Чикаго / Chicago Med [02х01-02] (2016) WEB-DLRip от MegaPeer | По версии Шадинского

4 | 7

1.19 ГБ




Вы не можете начинать темы
Вы не можете отвечать на сообщения
Вы не можете редактировать свои сообщения
Вы не можете удалять свои сообщения
Вы не можете добавлять вложения

Перейти:  
Для Мосгорсуда, Роскомнадзора и рекламодателей: mosgorsud-torrent[собачка]yandex.ru
 Вход
ppkBB3cker v.2 © 2008-2014 @ PPK
[ Time : 0.247s | 18 Queries | GZIP : Off ]

cron