img image001 image001 image001 image001 image001 image001 image001 image001 image001 image001 image001 image001 image001 image001 image001 image001
Planets Sun Sun Sun
Статистика раздачи
Автор: Nickolas3434 | Размер: 7.6 ГБ | Добавлен: 28 янв 2018
Раздают: 3    Качают: 1
Скачать торрент
Скачать торрент
Описание торрента

СообщениеДобавлено: 28 янв 2018 

Информация о фильме
Название: Земля медведей
Оригинальное: Terre des Ours
Год выхода: 2014
Жанр: Документальный, природа, животные, флора, фауна, видовой
Режиссер: Гийом Венсан
О фильме:
Фильм знакомит зрителя с уникальной дикой природой полуострова Камчатки, славящейся на весь мир сказочными пейзажами, и полностью погружает нас в её потрясающую атмосферу. До чего хороши необъятные равнины, могучие леса, тундра и тайга в буйстве осенних и зимних красок, а также устрашающие сопки вулканов, давно облюбованные бурыми медведями! Вот только не все отваживаются на посещение столь прекрасного, но опасного царства. Эту возможность и предоставляет данный фильм. А история двух маленьких медвежат, на наших глазах неосторожно познающих окружающий мир, превращающихся из умильных детей во взрослых, сильных зверей, не в силах оставить равнодушными ни взрослых, ни детей!

Страна: Франция
Студия: Cameron l Pace Group, Centre National de la Cinématographie (CNC), Les films en vrac, Nature Pictures, Orange Studio
Продолжительность: 01:26:11
Перевод: Профессиональный (одноголосый закадровый)
Файл
Кодек: MPEG-4 AVC
Качество: BDRip 1080p
Видео: 1920х800, 11,1 Мбит/с, 25 кадра/с
Звук: DTS-HD MA, 6 каналов, 1509 Кбит/с
Общее
Уникальный идентификатор : 229372262781499160279812786007081992528 (0xAC8F7DAD9B4281C083B5109DDB83C150)
Полное имя : C:UsersDVideosЗЕМЛЯ МЕДВЕДЕЙ.mkv
Формат : Matroska
Версия формата : Version 4 / Version 2
Размер файла : 7,60 Гбайт
Продолжительность : 1 ч. 26 м.
Общий поток : 12,6 Мбит/сек
Название фильма : Create by DeTorquemada for HDCLUB
Дата кодирования : UTC 2018-01-24 08:34:55
Программа кодирования : mkvmerge v20.0.0 ('I Am The Sun') 64-bit
Библиотека кодирования : libebml v1.3.5 + libmatroska v1.4.8
Видео
Идентификатор : 1
Формат : AVC
Формат/Информация : Advanced Video Codec
Профиль формата : [email protected]
Настройки формата : CABAC / 4 Ref Frames
Параметр CABAC формата : Да
Параметр RefFrames формата : 4 кадра
Идентификатор кодека : V_MPEG4/ISO/AVC
Продолжительность : 1 ч. 26 м.
Битрейт : 11,1 Мбит/сек
Ширина : 1920 пикселей
Высота : 800 пикселей
Соотношение сторон : 2,40:1
Режим частоты кадров : Постоянный
Частота кадров : 23,976 (24000/1001) кадра/сек
Цветовое пространство : YUV
Субдискретизация насыщенности : 4:2:0
Битовая глубина : 8 бит
Тип развёртки : Прогрессивная
Бит/(Пиксели*Кадры) : 0.302
Размер потока : 6,69 Гбайт (88%)
Библиотека кодирования : x264 core 146 r2538 121396c
Настройки программы : cabac=1 / ref=4 / deblock=1:-3:-3 / analyse=0x3:0x113 / me=umh / subme=10 / psy=1 / psy_rd=1.00:0.00 / mixed_ref=1 / me_range=48 / chroma_me=1 / trellis=2 / 8x8dct=1 / cqm=0 / deadzone=21,11 / fast_pskip=1 / chroma_qp_offset=-2 / threads=6 / lookahead_threads=1 / sliced_threads=0 / nr=0 / decimate=1 / interlaced=0 / bluray_compat=0 / constrained_intra=0 / bframes=3 / b_pyramid=2 / b_adapt=2 / b_bias=0 / direct=1 / weightb=1 / open_gop=0 / weightp=2 / keyint=240 / keyint_min=23 / scenecut=40 / intra_refresh=0 / rc_lookahead=65 / rc=crf / mbtree=0 / crf=18.0 / qcomp=0.60 / qpmin=0 / qpmax=69 / qpstep=4 / vbv_maxrate=50000 / vbv_bufsize=62500 / crf_max=0.0 / nal_hrd=none / filler=0 / ip_ratio=1.40 / pb_ratio=1.30 / aq=1:0.80
Default : Да
Forced : Нет
Цветовой диапазон : Limited
Коэффициенты матрицы : BT.709
Аудио
Идентификатор : 2
Формат : DTS
Формат/Информация : Digital Theater Systems
Идентификатор кодека : A_DTS
Продолжительность : 1 ч. 26 м.
Вид битрейта : Постоянный
Битрейт : 1509 Кбит/сек
Каналы : 6 каналов
Расположение каналов : Front: L C R, Side: L R, LFE
Частота : 48,0 КГц
Частота кадров : 93,750 кадра/сек (512 SPF)
Битовая глубина : 24 бит
Метод сжатия : С потерями
Размер потока : 930 Мбайт (12%)
Заголовок : Сергей Корчак
Язык : Russian
Default : Да
Forced : Нет



   Похожие торренты   Торрент   Размер 
В этой теме нет новых непрочитанных сообщений. Земля медведей / Terre des ours / Land of the Bears (2013) BDRip 1080p от Ash61 | 3D-Video | halfOU | L1

209 | 42

12.36 ГБ

В этой теме нет новых непрочитанных сообщений. Земля забвения / Земля забуття / La Terre Outragee (2011) DVDRip | Sub

21 | 0

1.46 ГБ

В этой теме нет новых непрочитанных сообщений. Земля, увиденная с неба / Earth From Above / La Terre vue du ciel (2004) BDRip-AVC от -=HD-NET=-

4 | 1

1.27 ГБ

В этой теме нет новых непрочитанных сообщений. Родная земля / Возвращение в Руруту / Terre Natale / Retour a Rurutu (2010) HDTVRip 1080р от RG MixTorrent | P

0 | 2

1.36 ГБ

В этой теме нет новых непрочитанных сообщений. Астерикс: Земля Богов / Astérix: Le domaine des dieux (2014) BDRip 1080p от ExKinoRay | Лицензия

336 | 13

5.27 ГБ

В этой теме нет новых непрочитанных сообщений. Россия - царство тигров, медведей и вулканов / Russland. Im Reich der Tiger, Baeren und Vulkane (2010) BDRip-AVC от ExKinoRay

48 | 8

2.47 ГБ

В этой теме нет новых непрочитанных сообщений. Астерикс: Земля Богов / Asterix: Le domaine des dieux (2014) BDRip 1080p от HDClub | 3D-Video | halfOU | Лицензия

352 | 17

5.19 ГБ




Вы не можете начинать темы
Вы не можете отвечать на сообщения
Вы не можете редактировать свои сообщения
Вы не можете удалять свои сообщения
Вы не можете добавлять вложения

Перейти:  
Для Мосгорсуда, Роскомнадзора и рекламодателей: mosgorsud-torrent[собачка]yandex.ru
 Вход
ppkBB3cker v.2 © 2008-2014 @ PPK
[ Time : 0.089s | 18 Queries | GZIP : Off ]

cron