img image001 image001 image001 image001 image001 image001 image001 image001 image001 image001 image001 image001 image001 image001 image001
Planets Sun Sun Sun
Статистика раздачи
Автор: Nickolas3434 | Размер: 9.81 ГБ | Добавлен: 28 янв 2018
Раздают: 16    Качают: 3
Скачать торрент
Скачать торрент
Описание торрента

СообщениеДобавлено: 28 янв 2018 

Информация о фильме
Название: Жизненные циклы
Оригинальное: Life Cycles
Год выхода: 2010
Жанр: Документальный, спорт, видовой
Режиссёр: Дерек Франковски, Райан Гибб
О фильме:
На какие трюки способен спортсмен, в руках которого оказывается профессиональный велобайк? Километры дорог, оставшихся позади, дикие пустыни, склоны лесов и оврагов – далеко не полный перечень тех разнообразных мест, где побывают велосипеды, являющиеся главными героями фильма. А начинается их долгий путь с изготовления на заводе и ввода в эксплуатацию. Долгие годы использования, сложные спуски и подъёмы, опасная езда - всё это настоящая жизнь велосипеда, полная красок и экстрима. Но всё когда-нибудь заканчивается. Так, и велосипедам остаётся доживать свой век, покрываясь ржавчиной где-нибудь на пыльном чердаке или свалке. Устаревшие модели заменяются современными, начинается новый цикл, который будет повторяться снова и снова. Меняются времена года, погодные условия и окружающая местность, а велорайдеры всё продолжают выполнять свои сногсшибательные трюки!


Выпущено: Канада, Stance Films
Продолжительность: 00:46:58
Перевод: Профессиональный (одноголосый закадровый) студия «Омикрон»
Файл
Кодек: MPEG-4 AVC
Качество: BDRemux 1080p | P1
Видео: 1920х1080, 29,2 Мбит/с, 24 кадра/с
Звук: AC-3, 6 каналов, 640 Кбит/с
Общее
Уникальный идентификатор : 334932923336154947223754235615276975495 (0xFBF9BC1175E0E8242A82E88139844587)
Полное имя : C:UsersDVideosЖИЗНЕННЫЕ ЦИКЛЫ.mkv
Формат : Matroska
Версия формата : Version 4 / Version 2
Размер файла : 9,81 Гбайт
Продолжительность : 47 м. 1 с.
Режим общего битрейта : Переменный
Общий поток : 29,9 Мбит/сек
Дата кодирования : UTC 2018-01-25 13:40:32
Программа кодирования : mkvmerge v20.0.0 ('I Am The Sun') 64-bit
Библиотека кодирования : libebml v1.3.5 + libmatroska v1.4.8
Видео
Идентификатор : 1
Формат : AVC
Формат/Информация : Advanced Video Codec
Профиль формата : [email protected]
Настройки формата : CABAC / 2 Ref Frames
Параметр CABAC формата : Да
Параметр RefFrames формата : 2 кадра
Параметр GOP формата : M=1, N=10
Идентификатор кодека : V_MPEG4/ISO/AVC
Продолжительность : 46 м. 58 с.
Вид битрейта : Переменный
Битрейт : 29,2 Мбит/сек
Ширина : 1920 пикселей
Высота : 1080 пикселей
Соотношение сторон : 16:9
Режим частоты кадров : Постоянный
Частота кадров : 23,976 (24000/1001) кадра/сек
Цветовое пространство : YUV
Субдискретизация насыщенности : 4:2:0
Битовая глубина : 8 бит
Тип развёртки : Прогрессивная
Бит/(Пиксели*Кадры) : 0.588
Размер потока : 9,60 Гбайт (98%)
Default : Да
Forced : Нет
Аудио
Идентификатор : 2
Формат : AC-3
Формат/Информация : Audio Coding 3
Идентификатор кодека : A_AC3
Продолжительность : 47 м. 1 с.
Вид битрейта : Постоянный
Битрейт : 640 Кбит/сек
Каналы : 6 каналов
Расположение каналов : Front: L C R, Side: L R, LFE
Частота : 48,0 КГц
Частота кадров : 31,250 кадров/сек (1536 SPF)
Битовая глубина : 16 бит
Метод сжатия : С потерями
Размер потока : 215 Мбайт (2%)
Язык : Russian
Default : Да
Forced : Нет



   Похожие торренты   Торрент   Размер 
В этой теме нет новых непрочитанных сообщений. Жизненные циклы / Life Cycles (2010) 1080p BDRip от HQCLUB

15 | 3

4.77 ГБ

В этой теме нет новых непрочитанных сообщений. Жизненные циклы / Life Cycles (2010) BDRip-AVC от HQCLUB

9 | 3

1.47 ГБ

В этой теме нет новых непрочитанных сообщений. Жизненные циклы / Life Cycles (2010) 720p BDRip от HQCLUB

9 | 2

2.29 ГБ

В этой теме нет новых непрочитанных сообщений. Жизненные циклы / Жизнь велосипедом / Life Cycles (2010) BDRip-AVC от -=HD-NET=- | P

10 | 3

698.2 МБ

В этой теме нет новых непрочитанных сообщений. Жизненные циклы / Life Cycles (2010) BDRip 720p от NNNB | 60 fps

56 | 10

2.59 ГБ

В этой теме нет новых непрочитанных сообщений. Жизнь велосипедом / Жизнь велосипедиста / Жизненный цикл / Жизненные циклы / Life Cycles (2010) BDRip. 1080p.

16 | 7

2.09 ГБ

В этой теме нет новых непрочитанных сообщений. Жизнь велосипедом / Жизнь велосипедиста / Жизненный цикл / Жизненные циклы / Life Cycles (2010) BDRip от Sky™

0 | 11

1.16 ГБ




Вы не можете начинать темы
Вы не можете отвечать на сообщения
Вы не можете редактировать свои сообщения
Вы не можете удалять свои сообщения
Вы не можете добавлять вложения

Перейти:  
Для Мосгорсуда, Роскомнадзора и рекламодателей: mosgorsud-torrent[собачка]yandex.ru
 Вход
ppkBB3cker v.2 © 2008-2014 @ PPK
[ Time : 0.040s | 18 Queries | GZIP : Off ]

cron