img image001 image001 image001 image001 image001 image001 image001 image001 image001 image001 image001 image001 image001 image001 image001
Planets Sun Sun Sun
Статистика раздачи
Автор: Nickolas3434 | Размер: 17.31 ГБ | Добавлен: 01 фев 2018
Раздают: 7    Качают: 7
Скачать торрент
Скачать торрент
Описание торрента

СообщениеДобавлено: 01 фев 2018 

Информация о фильме
Название: BBC: Морские гиганты
Оригинальное название: Ocean Giants
Год выхода: 2011
Жанр: Документальный, природа, животные, фауна, видовой
Режиссер: Ингрид Квале, Анушка Шофилд, Эллен Хусейн
О фильме:
В подводном мире киты и дельфины ведут необычный образ жизни. Их мир совершенно отличен от нашего, и мы можем лишь заглянуть туда. Синий кит - крупнейшее животное на планете. Более того, это крупнейшее животное из когда-либо живших на Земле. Миллионы лет эти гигантские киты и их сверхразумные братья - дельфины, царили в подводном мире. Наши отношения с ними не всегда были дружественными. Ранее мы преследовали их. Но теперь мы протягиваем им руку и испытываем ощущение чуда. Вместе с исследователями, посвятившими им свою жизнь, мы встретим самых удивительных китов и дельфинов, раскроем их тайны, услышим их голоса. Загадочные голоса китов и дельфинов веками давали пищу воображению. Возможно, ученые когда-нибудь узнают правду о чудесных голосах океана. Но пока что частная жизнь гигантов океана покрыта тайной.

Страна: Великобритания
Продолжительность: 3 x ~ 00:52:00
Перевод: Профессиональный (двухголосый закадровый) студия «Омикрон»
Файл
Кодек: MPEG-4 AVC
Качество: BDRemux 1080i
Видео: 1920х1080, 21,9 Мбит/с, 24 кадра/с
Аудио 1: Русский, AC-3, 6 каналов, 640 Кбит/с
Аудио 2: Английский, AC-3, 6 каналов, 640 Кбит/с
Общее
Идентификатор : 1 (0x1)
Полное имя : F:Video HDOcean.Giants.2011.1080i.Bluray.VC-1.Remux.HDCLUB1BDMVSTREAM0000.m2ts
Формат : BDAV
Формат/Информация : Blu-ray Video
Размер файла : 5,81 Гбайт
Продолжительность : 51 м.
Режим общего битрейта : Переменный
Общий поток : 16,1 Мбит/сек
Максимальный общий битрейт : 35,5 Мбит/сек
Видео
Идентификатор : 4113 (0x1011)
Идентификатор меню : 1 (0x1)
Формат : VC-1
Профиль формата : [email protected]
Идентификатор кодека : 234
Продолжительность : 51 м.
Битрейт : 14,2 Мбит/сек
Ширина : 1920 пикселей
Высота : 1080 пикселей
Соотношение сторон : 16:9
Частота кадров : 25,000 кадров/сек
Цветовое пространство : YUV
Субдискретизация насыщенности : 4:2:0
Битовая глубина : 8 бит
Тип развёртки : Прогрессивная
Порядок развёртки : Верхнее поле первое
Метод сжатия : С потерями
Бит/(Пиксели*Кадры) : 0.274
Размер потока : 5,12 Гбайт (88%)
Аудио #1
Идентификатор : 4352 (0x1100)
Идентификатор меню : 1 (0x1)
Формат : AC-3
Формат/Информация : Audio Coding 3
Расширение режима : CM (complete main)
Параметр Endianness формата : Big
Идентификатор кодека : 129
Продолжительность : 51 м.
Вид битрейта : Постоянный
Битрейт : 640 Кбит/сек
Каналы : 2 канала
Расположение каналов : Front: L R
Частота : 48,0 КГц
Битовая глубина : 16 бит
Метод сжатия : С потерями
Размер потока : 236 Мбайт (4%)
Аудио #2
Идентификатор : 4353 (0x1101)
Идентификатор меню : 1 (0x1)
Формат : AC-3
Формат/Информация : Audio Coding 3
Расширение режима : CM (complete main)
Параметр Endianness формата : Big
Идентификатор кодека : 129
Продолжительность : 51 м.
Вид битрейта : Постоянный
Битрейт : 640 Кбит/сек
Каналы : 2 канала
Расположение каналов : Front: L R
Частота : 48,0 КГц
Битовая глубина : 16 бит
Метод сжатия : С потерями
Размер потока : 236 Мбайт (4%)



   Похожие торренты   Торрент   Размер 
В этой теме нет новых непрочитанных сообщений. Морские гиганты / BBC: Ocean Giants [01-03] (2011) BDRip от HitWay | P2

107 | 11

1.85 ГБ

В этой теме нет новых непрочитанных сообщений. BBC. Морские гиганты / BBC. Ocean Giants [Серия 1 из 3] (2011) BDRip от HitWay | P2

40 | 12

634.99 МБ

В этой теме нет новых непрочитанных сообщений. Гиганты из глубин / Ocean Giants [01-03] (2011) SATRip от Generalfilm

12 | 4

1.85 ГБ

В этой теме нет новых непрочитанных сообщений. Маленькие гиганты / Little Giants (1994) WEB-DLRip от New-Team

23 | 13

1.75 ГБ

В этой теме нет новых непрочитанных сообщений. BBC: Гиганты ледникового периода / Ice Age Giants [S01] (2013) HDTVRip | P1

119 | 12

2.06 ГБ

В этой теме нет новых непрочитанных сообщений. BBC: Гиганты ледникового периода / Ice Age Giants [S01] (2013) HDTVRip 720p | P1

34 | 5

5.11 ГБ

В этой теме нет новых непрочитанных сообщений. Джейк и Гиганты / Jake and the Giants (2015) WEB-DLRip от MegaPeer | P

55 | 0

998.35 МБ




Вы не можете начинать темы
Вы не можете отвечать на сообщения
Вы не можете редактировать свои сообщения
Вы не можете удалять свои сообщения
Вы не можете добавлять вложения

Перейти:  
Для Мосгорсуда, Роскомнадзора и рекламодателей: mosgorsud-torrent[собачка]yandex.ru
 Вход
ppkBB3cker v.2 © 2008-2014 @ PPK
[ Time : 0.063s | 18 Queries | GZIP : Off ]

cron