img image001 image001 image001 image001 image001 image001 image001 image001 image001 image001 image001 image001 image001 image001 image001 image001
Planets Sun Sun Sun
Статистика раздачи
Автор: Nickolas3434 | Размер: 3.65 ГБ | Добавлен: 01 фев 2018
Раздают: 4    Качают: 1
Скачать торрент
Скачать торрент
Описание торрента

СообщениеДобавлено: 01 фев 2018 

Информация о фильме
Название: Волчьи горы
Оригинальное: The Wolf Mountains
Год выхода: 2013
Жанр: Документальный, природа, животные, флора, фауна, видовой
Режиссер: Эрик Балаз
О фильме:
Когда-то здесь рос лес, старый как мир. Наши предки считали его настоящим чудом. Никто не знал где начинается и заканчивается это таинственное и просторное королевство. Бесконечное море зелени простиралось до самых высоких гор. Чистейшая вода сбегала вниз и питала долины, а где вода - там жизнь. Миллиарды созданий колонизировали этот дикий край, реки изобиловали рыбой, а небо заполнили птицы. Здесь бродили самые огромные животные на Земле. Такой была Европа тысячи лет назад. Когда-то мы были частью этого мира природы, но со временем дикая природа стала нашим врагом, которого мы решили победить и подчинить. Сегодня как в сказке жизнь снова медленно восстаёт из пепла. В краю под названием "Волчьи горы".

Страна: США
Продолжительность: 00:43:59
Перевод: Дублированный
Файл
Кодек: MPEG-4 AVC
Качество: HDTV 1080i | D
Видео: 1920х1080, 10,9 Мбит/с, 25 кадра/с
Аудио 1: Русский, MP3, 2 канала, 192 Кбит/с
Аудио 2: Английский, MP3, 2 канала, 192 Кбит/с
Общее
Идентификатор : 1 (0x1)
Полное имя : D:КИНОВолчьи горы.ts
Формат : MPEG-TS
Размер файла : 3,65 Гбайт
Продолжительность : 43 м. 59 с.
Режим общего битрейта : Переменный
Общий поток : 11,9 Мбит/сек
Видео
Идентификатор : 321 (0x141)
Идентификатор меню : 1 (0x1)
Формат : AVC
Формат/Информация : Advanced Video Codec
Профиль формата : [email protected]
Настройки формата : CABAC / 4 Ref Frames
Параметр CABAC формата : Да
Параметр RefFrames формата : 4 кадра
Идентификатор кодека : 27
Продолжительность : 43 м. 59 с.
Битрейт : 10,9 Мбит/сек
Ширина : 1920 пикселей
Высота : 1080 пикселей
Соотношение сторон : 16:9
Частота кадров : 25,000 кадров/сек
Стандарт вещания : Component
Цветовое пространство : YUV
Субдискретизация насыщенности : 4:2:0
Битовая глубина : 8 бит
Тип развёртки : Чересстрочная
Метод сохранения типа развёртки : Раздельные поля
Порядок развёртки : Верхнее поле первое
Бит/(Пиксели*Кадры) : 0.211
Размер потока : 3,36 Гбайт (92%)
Цветовой диапазон : Limited
Основные цвета : BT.709
Характеристики трансфера : BT.709
Коэффициенты матрицы : BT.709
Аудио #1
Идентификатор : 401 (0x191)
Идентификатор меню : 1 (0x1)
Формат : MPEG Audio
Версия формата : Version 1
Профиль формата : Layer 2
Идентификатор кодека : 3
Продолжительность : 43 м. 59 с.
Вид битрейта : Постоянный
Битрейт : 192 Кбит/сек
Каналы : 2 канала
Частота : 48,0 КГц
Частота кадров : 41,667 кадра/сек (1152 SPF)
Метод сжатия : С потерями
Размер потока : 60,4 Мбайт (2%)
Язык : Russian
Аудио #2
Идентификатор : 451 (0x1C3)
Идентификатор меню : 1 (0x1)
Формат : MPEG Audio
Версия формата : Version 1
Профиль формата : Layer 2
Идентификатор кодека : 3
Продолжительность : 43 м. 59 с.
Вид битрейта : Постоянный
Битрейт : 192 Кбит/сек
Каналы : 2 канала
Частота : 48,0 КГц
Частота кадров : 41,667 кадра/сек (1152 SPF)
Метод сжатия : С потерями
Размер потока : 60,4 Мбайт (2%)
Язык : English



   Похожие торренты   Торрент   Размер 
В этой теме нет новых непрочитанных сообщений. National Geographic. Шоссе через ад: Канада / National Geographic. Highway Thru Hell: Canada [S01] (2012) HDTV 1080i

2 | 5

25.78 ГБ

В этой теме нет новых непрочитанных сообщений. National Geographic: Мурены. Чужая империя / National Geographic: Moray. Alien empire (2010) HDTV 1080i | P1

7 | 4

2.82 ГБ

В этой теме нет новых непрочитанных сообщений. National Geographic: Неисследованные глубины / National Geographic: Alien Deep with Bob Ballard [01х01-05 из 05] (2012) HDTV 1080i

11 | 9

15.92 ГБ

В этой теме нет новых непрочитанных сообщений. Авто S.O.S. (2 сезон, 1,4-7 серии из 10) / National Geographic. Car S.O.S. (National Geographic Channels) [2014, документальный, телепередача, реалити-шоу, HDTV 1080i] VO

2 | 0

14.5 ГБ

В этой теме нет новых непрочитанных сообщений. Авто S.O.S. (2 сезон, 1-9 серии из 10) / National Geographic. Car S.O.S. (National Geographic Channels) [2014, документальный, телепередача, реалити-шоу, HDTV 1080i] VO

0 | 3

26.02 ГБ

В этой теме нет новых непрочитанных сообщений. Авто S.O.S. (2 сезон, 1,4-8 серии из 10) / National Geographic. Car S.O.S. (National Geographic Channels) [2014, документальный, телепередача, реалити-шоу, HDTV 1080i] VO

2 | 0

17.37 ГБ

В этой теме нет новых непрочитанных сообщений. Авто S.O.S. (3 сезон, 1-7 серии из 10) / National Geographic. Car S.O.S. (National Geographic Channels) [2015, документальный, телепередача, реалити-шоу, HDTV 1080i] VO

0 | 3

20.31 ГБ




Вы не можете начинать темы
Вы не можете отвечать на сообщения
Вы не можете редактировать свои сообщения
Вы не можете удалять свои сообщения
Вы не можете добавлять вложения

Перейти:  
Для Мосгорсуда, Роскомнадзора и рекламодателей: mosgorsud-torrent[собачка]yandex.ru
 Вход
ppkBB3cker v.2 © 2008-2014 @ PPK
[ Time : 0.042s | 18 Queries | GZIP : Off ]

cron