img image001 image001 image001 image001 image001 image001 image001 image001 image001 image001 image001 image001 image001 image001 image001 image001
Planets Sun Sun Sun
Статистика раздачи
Автор: Снежана | Размер: 17.65 ГБ | Добавлен: 07 фев 2018
Раздают: 3    Качают: 3
Скачать торрент
Скачать торрент
Описание торрента

СообщениеДобавлено: 07 фев 2018 

Информация о фильме
Название: Дельфины скрытой камерой
Оригинальное: Dolphins: Spy in the Pod
Год выхода: 2014
Жанр: Документальный
Режиссер: Джон Доунер

О фильме:
Эпизод 1
Дельфины - самые умные обитатели океана. Мы думаем, что знаем их, но на самом деле жизнь этих удивительных созданий полна тайн. Радиоуправляемые "разведчики" с видеокамерами изучат выдающиеся способности и особенности поведения дельфинов - их озорной нрав и пытливый ум, проявления нежности и бурные конфликты. Вместе с "секретными агентами" подводный мир будет познавать новорожденный дельфинёнок, взрослея и постепенно осваиваясь в океане.

Эпизод 2
Скрытая камера продолжит следить за приключениями молодого дельфина-афалины, который вырос и покинул материнскую стаю. Кроме того, мы познакомимся с касатками - самыми крупными дельфинами в океане, и прокатимся на спине настоящего дельфина-разведчика навстречу новым открытиям в жизни этих загадочных существ.


Страна: Великобритания
Продолжительность: 2 х 00:59:08
Перевод: Любительский (одноголосый закадровый)

Файл
Кодек: MPEG-4 AVC
Качество: BDRemux 1080p
Видео: 1920х1080, 21,2 Мбит/с, 25 кадра/с
Звук: AC-3, 2 канала, 192 Кбит/с

Общее
Уникальный идентификатор : 140078735349756836450807815565279260983 (0x69622EDF86094FB3B6C26012C0C87137)
Полное имя : D:КИНОДЕЛЬФИНЫЭПИЗОД 01.mkv
Формат : Matroska
Версия формата : Version 4 / Version 2
Размер файла : 8,86 Гбайт
Продолжительность : 59 м. 8 с.
Режим общего битрейта : Переменный
Общий поток : 21,4 Мбит/сек
Дата кодирования : UTC 2018-02-02 09:53:36
Программа кодирования : mkvmerge v20.0.0 ('I Am The Sun') 64-bit
Библиотека кодирования : libebml v1.3.5 + libmatroska v1.4.8

Видео
Идентификатор : 1
Формат : AVC
Формат/Информация : Advanced Video Codec
Профиль формата : [email protected]
Настройки формата : CABAC / 4 Ref Frames
Параметр CABAC формата : Да
Параметр RefFrames формата : 4 кадра
Идентификатор кодека : V_MPEG4/ISO/AVC
Продолжительность : 59 м. 8 с.
Вид битрейта : Переменный
Битрейт : 21,2 Мбит/сек
Максимальный битрейт : 35,0 Мбит/сек
Ширина : 1920 пикселей
Высота : 1080 пикселей
Соотношение сторон : 16:9
Режим частоты кадров : Постоянный
Частота кадров : 25,000 кадров/сек
Стандарт вещания : PAL
Цветовое пространство : YUV
Субдискретизация насыщенности : 4:2:0
Битовая глубина : 8 бит
Тип развёртки : MBAFF
Метод сохранения типа развёртки : Чередующиеся поля
Порядок развёртки : Верхнее поле первое
Бит/(Пиксели*Кадры) : 0.410
Размер потока : 8,77 Гбайт (99%)
Default : Да
Forced : Нет
Цветовой диапазон : Limited
Основные цвета : BT.709
Характеристики трансфера : BT.709
Коэффициенты матрицы : BT.709

Аудио
Идентификатор : 2
Формат : AC-3
Формат/Информация : Audio Coding 3
Идентификатор кодека : A_AC3
Продолжительность : 59 м. 5 с.
Вид битрейта : Постоянный
Битрейт : 192 Кбит/сек
Каналы : 2 канала
Расположение каналов : Front: L R
Частота : 48,0 КГц
Частота кадров : 31,250 кадров/сек (1536 SPF)
Битовая глубина : 16 бит
Метод сжатия : С потерями
Размер потока : 81,1 Мбайт (1%)
Язык : Russian
Default : Да
Forced : Нет




   Похожие торренты   Торрент   Размер 
В этой теме нет новых непрочитанных сообщений. Дельфины и киты 3D / Dolphins and Whales: Tribes of the Ocean 3D (2008) BDRip 1080p | 3D-Video | D

19 | 5

4.33 ГБ

В этой теме нет новых непрочитанных сообщений. Дельфины. Шпион в стае [01-02 серии из 02] / Dolphins. Spy In The Pod (2014) HDTVRip от -=HD-NET=-

95 | 11

1.4 ГБ

В этой теме нет новых непрочитанных сообщений. Лучшие приколы скрытой камерой / Just for laughs Gags [Vol. 01-08] (2008) DVDRip

24 | 67

5.04 ГБ

В этой теме нет новых непрочитанных сообщений. IMAX: Дельфины / IMAX: Dolphins (2000) BDRip 1080p от ExKinoRay

1 | 3

3.92 ГБ

В этой теме нет новых непрочитанных сообщений. Дельфины / Dolphins (2007) DVDRip

6 | 3

684.43 МБ

В этой теме нет новых непрочитанных сообщений. Дельфины / IMAX - Dolphins (2000) BDRip от HQCLUB

2 | 2

744.74 МБ

В этой теме нет новых непрочитанных сообщений. Лучшие приколы скрытой камерой / Best of just for laughs 2012. Part 3 (2012) WEBRip

57 | 19

582.42 МБ




Вы не можете начинать темы
Вы не можете отвечать на сообщения
Вы не можете редактировать свои сообщения
Вы не можете удалять свои сообщения
Вы не можете добавлять вложения

Перейти:  
Для Мосгорсуда, Роскомнадзора и рекламодателей: mosgorsud-torrent[собачка]yandex.ru
 Вход
ppkBB3cker v.2 © 2008-2014 @ PPK
[ Time : 0.029s | 18 Queries | GZIP : Off ]

cron