img image001 image001 image001 image001 image001 image001 image001 image001 image001 image001 image001 image001 image001 image001 image001 image001
Planets Sun Sun Sun
Статистика раздачи
Автор: PriZraK | Размер: 1.74 ГБ | Добавлен: 12 фев 2018
Раздают: 0    Качают: 3
Скачать торрент
Скачать торрент
Описание торрента

СообщениеДобавлено: 12 фев 2018 

Вулкан (1-2 серии из 2) / The Volcano

Перевод: Профессиональный (двухголосый), cубтитры: отсутствуют
Формат: DVB, MPEG-TS, MPEG2, MP2
Страна: Южная Корея, Educational Broadcasting System (EBS)
Жанр: документальный, научно-познавательный
Продолжительность: 2 x ~00:41:30
Год выпуска: 2012

Описание: Находясь на границе с Северной Кореей и Китаем, священная гора Пэктусан является местом великой красоты и символом единства двух Корей. Но геологи опасаются, что это спящее чудовище возможно запоздало с извержением, сравнимым в мощи с 7-бальным катаклизмом который потряс Восточную Азию тысячу лет назад и погрузил мир во тьму. В этом фильме из двух частей анализируется то, что может произойти, если такое событие произойдет, а также подробней показывается жизнь других народов, которые живут в тени действующих вулканов.

Рейтинг MPAA -

Видео: 720х[email protected]024x576 (16:9), 25 fps, MPEG-2 ([email protected]), ~2535 kbps avg, 0.245 bit/pixel
Аудио: 48 kHz, MPEG Layer 2, 2 ch, ~192.00 kbps avg

Доп. информация: размер кадра - анаморфный - (1024x576)

Автор рипа и постера: skorpionN

01. Истина позади горы. Мега-Извержение Бэкду
02. В Стране Великого Огня


Код:
Код:
Общее
Идентификатор : 1 (0x1)
Полное имя : D:\The Volcano\V_1.ts
Формат : MPEG-TS
Размер файла : 854 Мбайт
Продолжительность : 41 м.
Режим общего битрейта : Переменный
Общий поток : 2871 Кбит/сек

Видео
Идентификатор : 206 (0xCE)
Идентификатор меню : 1806 (0x70E)
Формат : MPEG Video
Версия формата : Version 2
Профиль формата : [email protected]
Параметр BVOP формата : Да
Параметр матрицы формата : Выборочная
Параметр GOP формата : M=3, N=15
Структура изображения : Frame
Идентификатор кодека : 2
Продолжительность : 41 м.
Вид битрейта : Переменный
Битрейт : 2535 Кбит/сек
Максимальный битрейт : 9800 Кбит/сек
Ширина : 720 пикселей
Высота : 576 пикселей
Соотношение сторон : 16:9
Частота кадров : 25,000 кадров/сек
Стандарт вещания : PAL
Цветовое пространство : YUV
Субдискретизация насыщенности : 4:2:0
Битовая глубина : 8 бит
Тип развёртки : Чересстрочная
Порядок развёртки : Верхнее поле первое
Метод сжатия : С потерями
Бит/(Пиксели*Кадры) : 0.245
Временной код первого кадра : 00:00:00:00
Оригинал временного кода : Group of pictures header
GOP, открыто/закрыто : Открыто
GOP, открыто/закрыто на первом кадре : Закрыто
Размер потока : 754 Мбайт (88%)

Аудио
Идентификатор : 306 (0x132)
Идентификатор меню : 1806 (0x70E)
Формат : MPEG Audio
Версия формата : Version 1
Профиль формата : Layer 2
Идентификатор кодека : 3
Продолжительность : 41 м.
Вид битрейта : Постоянный
Битрейт : 192 Кбит/сек
Каналы : 2 канала
Частота : 48,0 КГц
Метод сжатия : С потерями
Размер потока : 57,1 Мбайт (7%)
Язык : Russian















   Похожие торренты   Торрент   Размер 
В этой теме нет новых непрочитанных сообщений. Потомки (1-10 серии из ?) (ООО ЭсКаСи) [2017, документальный, исторический, научно-познавательный, IPTVRip]

1 | 2

3.43 ГБ

В этой теме нет новых непрочитанных сообщений. Потомки (1-16 серии из ?) (ООО ЭсКаСи) [2017, документальный, исторический, научно-познавательный, IPTVRip]

4 | 2

5.49 ГБ

В этой теме нет новых непрочитанных сообщений. Потомки (1-5 серии из ?) (ООО ЭсКаСи) [2017, документальный, исторический, научно-познавательный, IPTVRip]

2 | 0

1.7 ГБ

В этой теме нет новых непрочитанных сообщений. Потомки (Портреты революции) (1-6 серии из ?) (ООО ЭсКаСи) [2017, документальный, исторический, научно-познавательный, IPTVRip]

4 | 0

2.08 ГБ

В этой теме нет новых непрочитанных сообщений. Загадки русской истории (1-8 серии из 8) (Дмитрий Лукашов) [2006, документальный, научно-познавательный, история, DVB-AVC]

3 | 0

3.66 ГБ

В этой теме нет новых непрочитанных сообщений. Секреты Луны (1-2 серии из 2) / Secrets of the Moon (Александр Абела) [2015, документальный, научно-познавательный, астрономия, DVB] DVO

8 | 0

1.79 ГБ

В этой теме нет новых непрочитанных сообщений. Удивительные подземные тайны (1-2 серии из 3) / Amazing Underground Secrets (Линетт Сингер) [2011, документальный, научно-познавательный, DVB] VO

0 | 6

3.59 ГБ




Вы не можете начинать темы
Вы не можете отвечать на сообщения
Вы не можете редактировать свои сообщения
Вы не можете удалять свои сообщения
Вы не можете добавлять вложения

Перейти:  
Для Мосгорсуда, Роскомнадзора и рекламодателей: mosgorsud-torrent[собачка]yandex.ru
 Вход
ppkBB3cker v.2 © 2008-2014 @ PPK
[ Time : 0.052s | 18 Queries | GZIP : Off ]

cron