img image001 image001 image001 image001 image001 image001 image001 image001 image001 image001 image001 image001 image001 image001 image001
Planets Sun Sun Sun
Статистика раздачи
Автор: PriZraK | Размер: 2.61 ГБ | Добавлен: 12 фев 2018
Раздают: 0    Качают: 6
Скачать торрент
Скачать торрент
Описание торрента

СообщениеДобавлено: 12 фев 2018 

История далекого прошлого (1-2 серия из 3) / Deep time History

Перевод: Профессиональный (полное дублирование), cубтитры: отсутствуют
Формат: HDTVRip, MKV, H.264, AC3
Страна: США
Режиссер: Джеймс Грант Голдин
Жанр: познавательный, научно-популярный
Продолжительность: 2 х ~ 00:50:29
Год выпуска: 2016
Описание:
Вы этом сериале мы рушим стены между наукой и историей, чтобы понять, как историей человечества зачастую управляют события далекого прошлого.

Видео: 1280х720 (16:9) 25 fps, AVC Н.264, ~3500 kbps avg, 0.152 bit/pixel
Аудио: 48 kHz, AC3, 2/0 (L,R) ch, ~192.00 kbps avg

Доп. информация:
Авторство релиза - alf62

1. Рассвет цивилизации / The Rise of Civilization
Примерно в 8000 году до н.э. в некоторых местах люди начали экспериментировать с новыми способами накопления энергии: они стали сами сажать растения.

2. Эпоха открытий / Age of Discovery
Колумб не знал, что геология и география Земли не дадут ему добраться до точки назначения, как не знал он и того, что его экспедиция станет одной из самых важных в истории.

3. Индустриальная революция и современная война / The Industrial Revolution and Modern Warfare
Основы индустриальной революции и развитие современного военного дела были давно заложены в процессах, которые обогащают почву.

История.далекого.прошлого.2016.720p.HDTVRip.alf62\1.Рассвет.цивилизации.2016.720p.HDTVRip.alf62.mkv
Формат : Matroska
Версия формата : Version 2
Размер файла : 1,30 Гбайт
Продолжительность : 50 м.
Общий поток : 3694 Кбит/сек
Дата кодирования : UTC 2017-09-23 18:17:01
Программа кодирования : mkvmerge v7.8.0 ('River Man') 32bit built on Apr 3 2015 12:11:22
Библиотека кодирования : libebml v1.3.1 + libmatroska v1.4.2

Видео
Идентификатор : 1
Формат : AVC
Формат/Информация : Advanced Video Codec
Профиль формата :
Параметр CABAC формата : Да
Параметр ReFrames формата : 16 кадров
Идентификатор кодека : V_MPEG4/ISO/AVC
Продолжительность : 50 м.
Битрейт : 3500 Кбит/сек
Ширина : 1280 пикселей
Высота : 720 пикселей
Соотношение сторон : 16:9
Режим частоты кадров : Постоянный
Частота кадров : 25,000 кадров/сек
Цветовое пространство : YUV
Субдискретизация насыщенности : 4:2:0
Битовая глубина : 8 бит
Тип развёртки : Прогрессивная
Бит/(Пиксели*Кадры) : 0.152
Размер потока : 1,21 Гбайт (93%)
Библиотека кодирования : x264 core 146 r2538 121396c
Настройки программы : cabac=1 / ref=16 / deblock=1:-1:-1 / analyse=0x3:0x113 / me=umh / subme=10 / psy=1 / psy_rd=1.00:0.00 / mixed_ref=1 / me_range=32 / chroma_me=1 / trellis=2 / 8x8dct=1 / cqm=0 / deadzone=21,11 / fast_pskip=0 / chroma_qp_offset=-2 / threads=6 / lookahead_threads=1 / sliced_threads=0 / nr=0 / decimate=0 / interlaced=0 / bluray_compat=0 / constrained_intra=0 / bframes=8 / b_pyramid=2 / b_adapt=2 / b_bias=0 / direct=3 / weightb=1 / open_gop=0 / weightp=2 / keyint=250 / keyint_min=25 / scenecut=40 / intra_refresh=0 / rc_lookahead=40 / rc=2pass / mbtree=1 / bitrate=3500 / ratetol=1.0 / qcomp=0.60 / qpmin=10 / qpmax=51 / qpstep=4 / cplxblur=20.0 / qblur=0.5 / vbv_maxrate=14000 / vbv_bufsize=14000 / nal_hrd=none / filler=0 / ip_ratio=1.40 / aq=1:0.80
Default : Да
Forced : Нет

Аудио
Идентификатор : 2
Формат : AC-3
Формат/Информация : Audio Coding 3
Расширение режима : CM (complete main)
Параметр Endianness формата : Big
Идентификатор кодека : A_AC3
Продолжительность : 50 м.
Вид битрейта : Постоянный
Битрейт : 192 Кбит/сек
Каналы : 2 канала
Расположение каналов : Front: L R
Частота : 48,0 КГц
Битовая глубина : 16 бит
Метод сжатия : С потерями
Размер потока : 69,3 Мбайт (5%)
Default : Да
Forced : Нет









   Похожие торренты   Торрент   Размер 
В этой теме нет новых непрочитанных сообщений. История далекого прошлого / Deep time History [01-03 из 03] (2016) HDTVRip от Kaztorrents | P1

31 | 1

2.23 ГБ

В этой теме нет новых непрочитанных сообщений. Древние пришельцы (12 сезон, 1 серия из 12) / Ancient Aliens (Кевин Барнс, Дэвид Сильвер) [2017, документальный, научно-популярный, уфология, HDTVRip 720р] V0

5 | 0

966.57 МБ

В этой теме нет новых непрочитанных сообщений. Земля динозавров (1-5 серии из 5) / Animal Planet. When Dinosaurs Ruled (Тони Митчелл, Саймон Ллойд, Дэвид Тибблс) [1999, документальный, научно-познавательный, история, биология, HDTVRip 720р] VO / Blu-Ray / BDRip / HDTV

14 | 3

7.34 ГБ

В этой теме нет новых непрочитанных сообщений. Как устроена Вселенная (5 сезон: 3 серии из 9) / How the Universe Works (Ник Дж. Миллер, Лиза Мерфи Райлли) [2016-2017, документальный, научно-познавательный, астрономия, космос, HDTVRip 720р] VO

4 | 0

3.61 ГБ

В этой теме нет новых непрочитанных сообщений. Глиняная (Призрачная) армия Китая / National Geographic. China's Ghost Army (Стивен Тэллей) [2010, документальный, научно-познавательный, история, HDTVRip] DUB

0 | 0

677.33 МБ

В этой теме нет новых непрочитанных сообщений. Древние пришельцы (12 сезон, 1-3 серии из 12) / Ancient Aliens (Кевин Барнс, Дэвид Сильвер) [2017, документальный, научно-популярный, уфология, HDTVRip 720р] V0

2 | 2

1.57 ГБ

В этой теме нет новых непрочитанных сообщений. Загадки русской истории (1-8 серии из 8) (Дмитрий Лукашов) [2006, документальный, научно-познавательный, история, DVB-AVC]

3 | 0

3.66 ГБ




Вы не можете начинать темы
Вы не можете отвечать на сообщения
Вы не можете редактировать свои сообщения
Вы не можете удалять свои сообщения
Вы не можете добавлять вложения

Перейти:  
Для Мосгорсуда, Роскомнадзора и рекламодателей: mosgorsud-torrent[собачка]yandex.ru
 Вход
ppkBB3cker v.2 © 2008-2014 @ PPK
[ Time : 0.041s | 18 Queries | GZIP : Off ]

cron