img image001 image001 image001 image001 image001 image001 image001 image001 image001 image001 image001 image001 image001 image001 image001
Planets Sun Sun Sun
Статистика раздачи
Автор: PriZraK | Размер: 806.75 МБ | Добавлен: 12 фев 2018
Раздают: 6    Качают: 0
Скачать торрент
Скачать торрент
Описание торрента

СообщениеДобавлено: 12 фев 2018 

Удивительное превращение тираннозавра / T-Rex: An Evolutionary Journey


Перевод: Профессиональный (одноголосый), cубтитры: отсутствуют
Формат: DVB, MPEG-TS, H.264, MP2
Страна: Япония
Режиссер: Кими Ямазаки
Жанр: документальный, научно-популярный, палеонтология, исследования
Продолжительность: 00:49:55
Год выпуска: 2016

Описание: Тираннозавр - самый могущественный из динозавров, когда-либо обитавших на нашей планете. Тринадцатиметровый гигант, весивший шесть тонн, был умён, быстр и беспощаден. Но его предки были маленькими и слабыми. Как маленькие тираннозавры преобразились в гигантских доминирующих суперхищников? Ученые исследуют удивительную историю эволюции тираннозавров длиною в сто миллионов лет.

Видео: 720х[email protected] (4:3), 25,000 fps, AVC (х264), [email protected], 1954 Кбит/сек, ~ 0.188 bit/pixel
Аудио: 48 kHz, MPEG Layer 2, 2 ch, ~192.00 kbps avg

Общее
Идентификатор : 1 (0x1)
Полное имя : F:\КИНО\T-Rex_An Evolutionary Journey.ts
Формат : MPEG-TS
Размер файла : 807 Мбайт
Продолжительность : 49 м. 55 с.
Режим общего битрейта : Переменный
Общий поток : 2260 Кбит/сек

Видео
Идентификатор : 205 (0xCD)
Идентификатор меню : 1005 (0x3ED)
Формат : MPEG Video
Версия формата : Version 2
Профиль формата : [email protected]
Настройки формата : CustomMatrix / BVOP
Параметр BVOP формата : Да
Параметр матрицы формата : Выборочная
Параметр GOP формата : M=3, N=15
Структура изображения : Frame
Идентификатор кодека : 2
Продолжительность : 49 м. 54 с.
Вид битрейта : Переменный
Битрейт : 1954 Кбит/сек
Максимальный битрейт : 9800 Кбит/сек
Ширина : 720 пикселей
Высота : 576 пикселей
Соотношение сторон : 4:3
Частота кадров : 25,000 кадров/сек
Стандарт вещания : PAL
Цветовое пространство : YUV
Субдискретизация насыщенности : 4:2:0
Битовая глубина : 8 бит
Тип развёртки : Чересстрочная
Порядок развёртки : Верхнее поле первое
Метод сжатия : С потерями
Бит/(Пиксели*Кадры) : 0.188
Временной код первого кадра : 00:00:00:00
Оригинал временного кода : Group of pictures header
GOP, открыто/закрыто : Открыто
GOP, открыто/закрыто на первом кадре : Закрыто
Размер потока : 698 Мбайт (86%)

Аудио
Идентификатор : 305 (0x131)
Идентификатор меню : 1005 (0x3ED)
Формат : MPEG Audio
Версия формата : Version 1
Профиль формата : Layer 2
Идентификатор кодека : 3
Продолжительность : 49 м. 54 с.
Вид битрейта : Постоянный
Битрейт : 192 Кбит/сек
Каналы : 2 канала
Частота : 48,0 КГц
Частота кадров : 41,667 кадра/сек (1152 SPF)
Метод сжатия : С потерями
Размер потока : 68,5 Мбайт (8%)
Язык : Russian

Текст
Идентификатор : 306 (0x132)-888
Идентификатор меню : 1005 (0x3ED)
Формат : Teletext Subtitle
Язык : Russian
Язык, дополнительно : For hearing impaired people













   Похожие торренты   Торрент   Размер 
В этой теме нет новых непрочитанных сообщений. Белый медведь (Юрий Ледин) [1975, документальный, научно-популярный, фауна, TVRip]

0 | 0

750.47 МБ

В этой теме нет новых непрочитанных сообщений. Доисторические звездные часы / Star Clock BC (Эмили Бернард) [2010, документальный, научно-популярный, DVB-AVC] DVO

6 | 0

994.58 МБ

В этой теме нет новых непрочитанных сообщений. Полярные воды (1 сезон: 1-10 серии из 10) / The Polar Sea (Гордон Пинсент) [2018, документальный, научно-популярный, путешествия, WEB-DLRip] DVO

0 | 0

5.19 ГБ

В этой теме нет новых непрочитанных сообщений. Космические столкновения (1-3 серии из 3) / Discovery. Cosmic Collisions (Люк Эллис, Мэт Хикей) [2009, документальный, научно-познавательный, исследования, космос, HDTVRip] VO

0 | 0

1.52 ГБ

В этой теме нет новых непрочитанных сообщений. Полярные воды (1 сезон: 1-10 серии из 10) / The Polar Sea (Гордон Пинсент) [2014, документальный, научно-популярный, путешествия, WEB-DLRip 720p] DVO

1 | 1

13.26 ГБ

В этой теме нет новых непрочитанных сообщений. Эйнштейн и теория относительности / Einstein et la relativite generale, une histoire singuliere (Квентин Ладзаротто) [2015, документальный, научно-популярный, HDTVRip] DVO

20 | 0

744.71 МБ

В этой теме нет новых непрочитанных сообщений. Древние пришельцы (12 сезон, 1-5 серии из 16) / Ancient Aliens (Кевин Барнс, Дэвид Сильвер) [2017, документальный, научно-популярный, уфология, SATRip-AVC] MVO

3 | 0

2.69 ГБ




Вы не можете начинать темы
Вы не можете отвечать на сообщения
Вы не можете редактировать свои сообщения
Вы не можете удалять свои сообщения
Вы не можете добавлять вложения

Перейти:  
Для Мосгорсуда, Роскомнадзора и рекламодателей: mosgorsud-torrent[собачка]yandex.ru
 Вход
ppkBB3cker v.2 © 2008-2014 @ PPK
[ Time : 0.036s | 18 Queries | GZIP : Off ]

cron