img image001 image001 image001 image001 image001 image001 image001 image001 image001 image001 image001 image001 image001 image001 image001
Planets Sun Sun Sun
Статистика раздачи
Автор: PriZraK | Размер: 13.26 ГБ | Добавлен: 12 фев 2018
Раздают: 1    Качают: 1
Скачать торрент
Скачать торрент
Описание торрента

СообщениеДобавлено: 12 фев 2018 

Полярные воды (1 сезон: 1-10 серии из 10) / The Polar Sea

Перевод: Любительский (двухголосый) [Sunshine Studio]
Субтитры: английские, форсированные
Формат: WEB-DLRip 720p, MKV, H.264, AC3
Страна: Канада, Primitive Entertainment
Режиссер: Гордон Пинсент
Жанр: документальный, научно-популярный, путешествия
Продолжительность: 10 x ~00:43:00
Год выпуска: 2014

В ролях: Гордон Пинсент, Джордж Кораунис

Описание: Документальный фильм, повествует о путешествии по полярным водам, также затрагивающий последствия глобального потепления для небольших поселений и других живых организмов. В центре событий три друга, которые решили покинуть свои дома на летних каникулах, и отправились навстречу приключениям. В четвертой серии присутствуют сцены убийства животных и охоты на китов . Убийство кита длительный процесс и его просмотр может навредить некоторым зрителям. Убийста совершаются ради добычи пропитания, а не ради насилия.



Видео: 1280x720 (16:9), 23,976 fps, AVC (x264), ~4666 kbps avg, 0.211 bit/pixel
Аудио: 48 kHz, AC3, 2 ch, ~192.00 kbps avg

Доп. информация: Присутствует реклама и текстовые вставки


Код:
Код:
Общее
Уникальный идентификатор : 237798589551797732022337855450288790463 (0xB2E657A9D3660E03920854CDBCFC9BBF)
Полное имя : D:\The.Polar.Sea.S01.720p.SunshineStudio\The.Polar.Sea.S01E01.720p.SunshineStudio.mkv
Формат : Matroska
Версия формата : Version 4 / Version 2
Размер файла : 1,49 Гбайт
Продолжительность : 43 м. 58 с.
Общий поток : 4859 Кбит/сек
Дата кодирования : UTC 2018-01-22 18:17:49
Программа кодирования : mkvmerge v8.3.0 ('Over the Horizon') 64bit
Библиотека кодирования : libebml v1.3.1 + libmatroska v1.4.2

Видео
Идентификатор : 1
Формат : AVC
Формат/Информация : Advanced Video Codec
Профиль формата :
Настройки формата : CABAC / 4 Ref Frames
Параметр CABAC формата : Да
Параметр RefFrames формата : 4 кадра
Идентификатор кодека : V_MPEG4/ISO/AVC
Продолжительность : 43 м. 57 с.
Битрейт : 4666 Кбит/сек
Ширина : 1280 пикселей
Высота : 720 пикселей
Соотношение сторон : 16:9
Режим частоты кадров : Постоянный
Частота кадров : 23,976 кадра/сек
Цветовое пространство : YUV
Субдискретизация насыщенности : 4:2:0
Битовая глубина : 8 бит
Тип развёртки : Прогрессивная
Бит/(Пиксели*Кадры) : 0.211
Размер потока : 1,43 Гбайт (96%)
Библиотека кодирования : x264 core 130 r2273 b3065e6
Настройки программы : cabac=1 / ref=1 / deblock=1:0:0 / analyse=0x3:0x113 / me=hex / subme=2 / psy=1 / psy_rd=1.00:0.10 / mixed_ref=0 / me_range=16 / chroma_me=1 / trellis=0 / 8x8dct=1 / cqm=0 / deadzone=21,11 / fast_pskip=1 / chroma_qp_offset=0 / threads=6 / lookahead_threads=2 / sliced_threads=0 / nr=0 / decimate=1 / interlaced=0 / bluray_compat=0 / constrained_intra=0 / bframes=3 / b_pyramid=2 / b_adapt=1 / b_bias=0 / direct=1 / weightb=1 / open_gop=0 / weightp=1 / keyint=250 / keyint_min=23 / scenecut=40 / intra_refresh=0 / rc_lookahead=10 / rc=crf / mbtree=1 / crf=17.0 / qcomp=0.60 / qpmin=0 / qpmax=69 / qpstep=4 / ip_ratio=1.40 / aq=1:1.00
Язык : English
Default : Да
Forced : Нет

Аудио
Идентификатор : 2
Формат : AC-3
Формат/Информация : Audio Coding 3
Идентификатор кодека : A_AC3
Продолжительность : 43 м. 58 с.
Вид битрейта : Постоянный
Битрейт : 192 Кбит/сек
Каналы : 2 канала
Расположение каналов : Front: L R
Частота : 48,0 КГц
Частота кадров : 31,250 кадров/сек (1536 SPF)
Битовая глубина : 16 бит
Метод сжатия : С потерями
Размер потока : 60,4 Мбайт (4%)
ServiceKind/String : Complete Main
Default : Да
Forced : Нет




















   Похожие торренты   Торрент   Размер 
В этой теме нет новых непрочитанных сообщений. Полярные воды (1 сезон: 1-10 серии из 10) / The Polar Sea (Гордон Пинсент) [2018, документальный, научно-популярный, путешествия, WEB-DLRip] DVO

0 | 0

5.19 ГБ

В этой теме нет новых непрочитанных сообщений. Древние пришельцы (12 сезон, 1-5 серии из 16) / Ancient Aliens (Кевин Барнс, Дэвид Сильвер) [2017, документальный, научно-популярный, уфология, SATRip-AVC] MVO

3 | 0

2.69 ГБ

В этой теме нет новых непрочитанных сообщений. Древние пришельцы (12 сезон, 1-3 серии из 12) / Ancient Aliens (Кевин Барнс, Дэвид Сильвер) [2017, документальный, научно-популярный, уфология, HDTVRip 720р] V0

2 | 2

1.57 ГБ

В этой теме нет новых непрочитанных сообщений. Сверхчувства животных (Уникальные способности животных) / (1-3 серии из 3) / Animal Super Senses (Кирстин Дэвидсон) [2014, документальный, научно-популярный, фауна, DVB 720p] VO

10 | 0

8.73 ГБ

В этой теме нет новых непрочитанных сообщений. Рождение человечества. Битва за планету Земля (1-2 серии из 2) / Planet of the Apemen: Battle for Earth (Тони Митчел) [2011, документальный, постановочный, научно-популярный, SATRip] DVO

7 | 0

1.34 ГБ

В этой теме нет новых непрочитанных сообщений. Древние пришельцы (12 сезон, 1 серия из 12) / Ancient Aliens (Кевин Барнс, Дэвид Сильвер) [2017, документальный, научно-популярный, уфология, HDTVRip 720р] V0

5 | 0

966.57 МБ

В этой теме нет новых непрочитанных сообщений. Викторианская ферма (1 сезон, 1-6 серии из 6) / BBC. Victorian Farm (Стюарт Эллиотт) [2009, документальный, научно-познавательный, история, культура, реконструкция, DVDRip] DUB

0 | 8

4.37 ГБ




Вы не можете начинать темы
Вы не можете отвечать на сообщения
Вы не можете редактировать свои сообщения
Вы не можете удалять свои сообщения
Вы не можете добавлять вложения

Перейти:  
Для Мосгорсуда, Роскомнадзора и рекламодателей: mosgorsud-torrent[собачка]yandex.ru
 Вход
ppkBB3cker v.2 © 2008-2014 @ PPK
[ Time : 0.020s | 18 Queries | GZIP : Off ]

cron