img image001 image001 image001 image001 image001 image001 image001 image001 image001 image001 image001 image001 image001 image001 image001 image001
Planets Sun Sun Sun
Статистика раздачи
Автор: PriZraK | Размер: 7.94 ГБ | Добавлен: 13 фев 2014
Раздают: 127    Качают: 14
Скачать торрент
Скачать торрент
Описание торрента

СообщениеДобавлено: 13 фев 2014 




Информация о фильме
Название: Козырные тузы
Оригинальное название: Smokin' Aces
Год выхода: 2006
Режиссер: Джо Карнахан
В ролях: Бен Аффлек, Джейсон Бейтман, Джозеф Рускин, Энди Гарсиа, Алекс Рокко, Алишиа Кис, Вейн Ньютон, Рэй Лиотта, Джереми Пивен, Питер Берг, Райан Рейнольдс, Мартин Хендерсон

О фильме:
Бывший протеже гангстерского босса, успешный сценичный комик, решает выступить в суде со свидетельствами против своих бывших друзей. За его голову гангстерами назначена награда в 1 миллион долларов. ФБР всячески пытается укрыть его до суда, но он периодически упорно появляется на людях, привлекая, словно свет в ночи, десятки наемных убийц.
Страна: США, Франция, Великобритания
Продолжительность: 01:48:23
Перевод: Дубляж


Файл
Кодек: h.264
Качество: BDRip 1080p
Видео: 1920x816, 9183 Kbps, 23.976 fps, Bits/(Pixel*Frame) 0.244
Звук #1: AC3, 640 Kbps
Звук #2: AC3, 640 Kbps
Субтитры: Русские, английские

Format : Matroska
Format version : Version 4 / Version 2
File size : 7.94 GiB
Duration : 1h 48mn
Overall bit rate : 10.5 Mbps
Encoded date : UTC 2013-08-11 16:33:00
Writing application : mkvmerge v6.1.0 ('Old Devil') built on Mar 4 2013 09:10:42
Writing library : libebml v1.3.0 + libmatroska v1.4.0

Video
ID : 1
Format : AVC
Format/Info : Advanced Video Codec
Format profile : [email protected]
Format settings, CABAC : Yes
Format settings, ReFrames : 5 frames
Codec ID : V_MPEG4/ISO/AVC
Duration : 1h 48mn
Bit rate : 9 183 Kbps
Width : 1 920 pixels
Height : 816 pixels
Display aspect ratio : 2.35:1
Frame rate mode : Constant
Frame rate : 23.976 fps
Color space : YUV
Chroma subsampling : 4:2:0
Bit depth : 8 bits
Scan type : Progressive
Bits/(Pixel*Frame) : 0.244
Stream size : 6.82 GiB (86%)
Writing library : x264 core 130 r2273 b3065e6
Encoding settings : cabac=1 / ref=5 / deblock=1:-1:-1 / analyse=0x3:0x133 / me=umh / subme=11 / psy=1 / psy_rd=1.00:0.10 / mixed_ref=1 / me_range=32 / chroma_me=1 / trellis=2 / 8x8dct=1 / cqm=0 / deadzone=21,11 / fast_pskip=0 / chroma_qp_offset=-3 / threads=9 / lookahead_threads=1 / sliced_threads=0 / nr=0 / decimate=1 / interlaced=0 / bluray_compat=0 / constrained_intra=0 / bframes=8 / b_pyramid=2 / b_adapt=2 / b_bias=0 / direct=3 / weightb=1 / open_gop=0 / weightp=2 / keyint=250 / keyint_min=23 / scenecut=40 / intra_refresh=0 / rc_lookahead=60 / rc=2pass / mbtree=1 / bitrate=9183 / ratetol=1.0 / qcomp=0.60 / qpmin=0 / qpmax=69 / qpstep=4 / cplxblur=20.0 / qblur=0.5 / ip_ratio=1.40 / aq=1:1.00
Language : English
Default : Yes
Forced : No

Audio #1
ID : 2
Format : AC-3
Format/Info : Audio Coding 3
Mode extension : CM (complete main)
Format settings, Endianness : Big
Codec ID : A_AC3
Duration : 1h 48mn
Bit rate mode : Constant
Bit rate : 640 Kbps
Channel count : 6 channels
Channel positions : Front: L C R, Side: L R, LFE
Sampling rate : 48.0 KHz
Bit depth : 16 bits
Compression mode : Lossy
Delay relative to video : 300ms
Stream size : 496 MiB (6%)
Language : Russian
Default : Yes
Forced : Yes

Audio #2
ID : 3
Format : AC-3
Format/Info : Audio Coding 3
Mode extension : CM (complete main)
Format settings, Endianness : Big
Codec ID : A_AC3
Duration : 1h 48mn
Bit rate mode : Constant
Bit rate : 640 Kbps
Channel count : 6 channels
Channel positions : Front: L C R, Side: L R, LFE
Sampling rate : 48.0 KHz
Bit depth : 16 bits
Compression mode : Lossy
Stream size : 496 MiB (6%)
Language : English
Default : No
Forced : No

Text #1
ID : 4
Format : UTF-8
Codec ID : S_TEXT/UTF8
Codec ID/Info : UTF-8 Plain Text
Language : Russian
Default : Yes
Forced : No

Text #2
ID : 5
Format : UTF-8
Codec ID : S_TEXT/UTF8
Codec ID/Info : UTF-8 Plain Text
Language : English
Default : No
Forced : No


x264 [info]: frame I:1083 Avg QP:18.03 size:192228
x264 [info]: frame P:41564 Avg QP:20.57 size: 68958
x264 [info]: frame B:113859 Avg QP:22.49 size: 38802





   Похожие торренты   Торрент   Размер 
В этой теме нет новых непрочитанных сообщений. Козырные тузы / Smokin' Aces (2006) BDRip 1080p от Neofilm

238 | 9

4.37 ГБ

В этой теме нет новых непрочитанных сообщений. Козырные тузы / Smokin' Aces (2006) WEB-DL 1080p | D, A | Open Matte

36 | 8

14.14 ГБ

В этой теме нет новых непрочитанных сообщений. Козырные тузы / Smokin' Aces (2006) BDRip-AVC от leonardo 59

141 | 6

2.3 ГБ

В этой теме нет новых непрочитанных сообщений. Козырные тузы / Smokin' Aces (2006) BDRip от HQCLUB

15 | 4

2.18 ГБ

В этой теме нет новых непрочитанных сообщений. Козырные тузы / Smokin' Aces (2006) BDRip-AVC от Just TeMa | A, D

39 | 11

4.3 ГБ

В этой теме нет новых непрочитанных сообщений. Козырные тузы / Smokin' Aces (2006) BDRip-AVC от Rulya74

104 | 7

2.18 ГБ

В этой теме нет новых непрочитанных сообщений. Козырные тузы / Smokin' Aces (2006) BDRip от HELLYWOOD

79 | 8

2.18 ГБ




Вы не можете начинать темы
Вы не можете отвечать на сообщения
Вы не можете редактировать свои сообщения
Вы не можете удалять свои сообщения
Вы не можете добавлять вложения

Перейти:  
Для Мосгорсуда, Роскомнадзора и рекламодателей: mosgorsud-torrent[собачка]yandex.ru
 Вход
ppkBB3cker v.2 © 2008-2014 @ PPK
[ Time : 0.055s | 18 Queries | GZIP : Off ]

cron