img image001 image001 image001 image001 image001 image001 image001 image001 image001 image001 image001 image001 image001 image001 image001

Planets Sun Sun Sun
Статистика раздачи
Автор: Nickolas3434 | Размер: 20.9 ГБ | Добавлен: 12 ноя 2014
Раздают: 42    Качают: 9
Скачать торрент
Скачать торрент
Описание торрента

СообщениеДобавлено: 12 ноя 2014 

Название: Планета обезьян: Революция
Оригинальное название: Dawn of the Planet of the Apes
Страна: США
Жанр: Фантастика
Режиссер: Мэтт Ривз/ Matt Reeves
В ролях: Энди Серкис, Джейсон Кларк, Гари Олдман, Кери Рассел, Тоби Кеббелл, Коди Смит-МакФи, Кирк Асеведо, Ник Тёрстон, Терри Нотари, Карин Коновал


О фильме:Численность генетически модифицированных обезьян, возглавляемых Цезарем, продолжает увеличиваться, но обезьянам угрожают люди, которым удалось выжить во время ужасной эпидемии десятилетней давности. Поначалу между соперниками устанавливается хрупкий мир, но он оказывается недолговечным. Обезьяны и люди находятся на грани войны, в ходе которой станет понятно, кто из них в будущем станет безраздельно править планетой.





Продолжительность: 02:10:24
Качество видео: BDRemux
Видеокодек: MPEG-4 AVC
Битрейт видео: ~21700 kbps, 1080p, 23.976 fps, 16:9, High Profile 4.1
Размер кадра: 1920 x 1080
Аудио : Rus, DTS, 768 kb/s (6 ch), 48 kHz, Русский дублированный
Субтитры : Русские (Forced) только на речь обезьян
Главы/Чаптеры: Есть
General
Unique ID : 221752251082399430112671856017567208491 (0xA6D3EE1860E7F4709168372F2ECD542B)
Format : Matroska
Format version : Version 4 / Version 2
File size : 20.9 GiB
Duration : 2h 10mn
Overall bit rate mode : Variable
Overall bit rate : 22.9 Mbps
Encoded date : UTC 2014-11-11 16:35:49
Writing application : mkvmerge v7.1.0 ('Good Love') 64bit built on Jul 27 2014 13:06:55
Writing library : libebml v1.3.0 + libmatroska v1.4.1
DURATION : 02:07:13.175000000
NUMBER_OF_FRAMES : 266
NUMBER_OF_BYTES : 1330320
_STATISTICS_WRITING_APP : mkvmerge v7.1.0 ('Good Love') 64bit built on Jul 27 2014 13:06:55
_STATISTICS_WRITING_DATE_UTC : 2014-11-11 16:35:49
_STATISTICS_TAGS : BPS DURATION NUMBER_OF_FRAMES NUMBER_OF_BYTES
Video
ID : 1
Format : AVC
Format/Info : Advanced Video Codec
Format profile : [email protected]
Format settings, CABAC : Yes
Format settings, ReFrames : 4 frames
Codec ID : V_MPEG4/ISO/AVC
Duration : 2h 10mn
Bit rate mode : Variable
Bit rate : 21.7 Mbps
Maximum bit rate : 35.5 Mbps
Width : 1 920 pixels
Height : 1 080 pixels
Display aspect ratio : 16:9
Frame rate mode : Constant
Frame rate : 23.976 fps
Color space : YUV
Chroma subsampling : 4:2:0
Bit depth : 8 bits
Scan type : Progressive
Bits/(Pixel*Frame) : 0.437
Stream size : 19.8 GiB (95%)
Default : Yes
Forced : No
Audio
ID : 2
Format : DTS
Format/Info : Digital Theater Systems
Mode : 16
Format settings, Endianness : Big
Codec ID : A_DTS
Duration : 2h 10mn
Bit rate mode : Constant
Bit rate : 768 Kbps
Channel(s) : 6 channels
Channel positions : Front: L C R, Side: L R, LFE
Sampling rate : 48.0 KHz
Bit depth : 24 bits
Compression mode : Lossy
Stream size : 716 MiB (3%)
Language : Russian
Default : Yes
Forced : No
Text
ID : 3
Format : PGS
Muxing mode : zlib
Codec ID : S_HDMV/PGS
Codec ID/Info : The same subtitle format used on BDs/HD-DVDs
Language : Russian
Default : Yes
Forced : Yes
Menu
00:00:00.000 : en:Chapter 1
00:03:21.159 : en:Chapter 2
00:07:34.912 : en:Chapter 3
00:12:36.547 : en:Chapter 4
00:16:23.565 : en:Chapter 5
00:18:47.042 : en:Chapter 6
00:21:52.477 : en:Chapter 7
00:25:26.691 : en:Chapter 8
00:29:45.867 : en:Chapter 9
00:31:50.617 : en:Chapter 10
00:36:43.743 : en:Chapter 11
00:39:07.553 : en:Chapter 12
00:40:57.163 : en:Chapter 13
00:44:12.232 : en:Chapter 14
00:48:11.138 : en:Chapter 15
00:50:31.528 : en:Chapter 16
00:53:48.016 : en:Chapter 17
00:57:25.316 : en:Chapter 18
01:01:18.466 : en:Chapter 19
01:02:35.376 : en:Chapter 20
01:04:24.068 : en:Chapter 21
01:06:21.727 : en:Chapter 22
01:09:31.333 : en:Chapter 23
01:13:56.974 : en:Chapter 24
01:17:17.924 : en:Chapter 25
01:20:53.390 : en:Chapter 26
01:23:28.753 : en:Chapter 27
01:26:08.997 : en:Chapter 28
01:28:19.252 : en:Chapter 29
01:33:24.390 : en:Chapter 30
01:35:53.122 : en:Chapter 31
01:38:38.621 : en:Chapter 32
01:40:42.536 : en:Chapter 33
01:44:07.532 : en:Chapter 34
01:46:05.317 : en:Chapter 35
01:47:54.468 : en:Chapter 36
01:52:13.768 : en:Chapter 37
01:56:27.480 : en:Chapter 38
02:00:31.015 : en:Chapter 39
02:01:35.037 : en:Chapter 40



   Похожие торренты   Торрент   Размер 
В этой теме нет новых непрочитанных сообщений. Планета обезьян: Революция / Dawn of the Planet of the Apes (2014) BDRemux 1080p | D, A

250 | 60

23.5 ГБ

В этой теме нет новых непрочитанных сообщений. Планета обезьян: Революция 2D, 3D / Dawn of the Planet of the Apes 2D, 3D (2014) BDRemux 1080p от ExKinoRay | 3D-Video | D | Лицензия

94 | 34

39.07 ГБ

В этой теме нет новых непрочитанных сообщений. Планета обезьян: Революция / Dawn of the Planet of the Apes (2014) UHD BDRemux 2160p | 4K | HDR | D, A | Лицензия

9 | 12

47.26 ГБ

В этой теме нет новых непрочитанных сообщений. Планета обезьян: Революция / Dawn of the Planet of the Apes (2014) Blu-ray CEE 1080p

187 | 72

43.96 ГБ

В этой теме нет новых непрочитанных сообщений. Планета обезьян: Революция / Dawn of the Planet of the Apes (2014) BDRip 1080p

1265 | 120

14.46 ГБ

В этой теме нет новых непрочитанных сообщений. Планета обезьян: Революция / Dawn of the Planet of the Apes (2014) WEB-DL 1080p | Чистый звук

6090 | 563

5.06 ГБ

В этой теме нет новых непрочитанных сообщений. Планета обезьян: Революция / Dawn of the Planet of the Apes (2014) BDRip 1080p от Neofilm

460 | 168

11.54 ГБ




Вы не можете начинать темы
Вы не можете отвечать на сообщения
Вы не можете редактировать свои сообщения
Вы не можете удалять свои сообщения
Вы не можете добавлять вложения

Перейти:  
Для Мосгорсуда, Роскомнадзора и рекламодателей: mosgorsud-torrent[собачка]yandex.ru
 Вход
ppkBB3cker v.2 © 2008-2014 @ PPK
[ Time : 0.055s | 19 Queries | GZIP : Off ]

cron