img image001 image001 image001 image001 image001 image001 image001 image001 image001 image001 image001 image001 image001 image001 image001

Planets Sun Sun Sun
Статистика раздачи
Автор: Nickolas3434 | Размер: 23.5 ГБ | Добавлен: 12 ноя 2014
Раздают: 250    Качают: 60
Скачать торрент
Скачать торрент
Описание торрента

СообщениеДобавлено: 12 ноя 2014 

Информация о фильме
Название: Планета обезьян: Революция
Оригинальное название: Dawn of the Planet of the Apes
Год выхода: 2014
Жанр: фантастика, боевик, драма
Режиссер: Мэтт Ривз
В ролях: Энди Серкис, Джейсон Кларк, Гари Олдман, Кери Рассел, Тоби Кеббелл, Коди, Смит-МакФи, Кирк Асеведо, Ник Тёрстон, Терри Нотари, Карин Коновал
О фильме: Численность генетически модифицированных обезьян, возглавляемых Цезарем, продолжает увеличиваться, но обезьянам угрожают люди, которым удалось выжить во время ужасной эпидемии десятилетней давности. Поначалу между соперниками устанавливается хрупкий мир, но он оказывается недолговечным. Обезьяны и люди находятся на грани войны, в ходе которой станет понятно, кто из них в будущем станет безраздельно править планетой.

Выпущено: США / Chernin Entertainment
Продолжительность: 02:10:24
Перевод: Профессиональный (полное дублирование) - Лицензия,
Авторский (одноголосый закадровый) - Д. Есарев
Файл
Качество: BDRemux 1080p
Формат: MKV
Видео: MPEG4/AVC, 1920х1080 (16:9), 21.7 Мбит/сек, 23.976 кадра/сек
Аудио 1: DTS, 6 каналов, 768 Кбит/сек | Русский - Лицензия
Аудио 2: AC3, 6 каналов, 448 Кбит/сек | Русский - Лицензия
Аудио 3: AC3, 6 каналов, 448 Кбит/сек | Русский - Есарев (полный перевод)
Аудио 4: AC3, 6 каналов, 448 Кбит/сек | Украинский - Лицензия
Аудио 5: DTS, 6 каналов, 1509 Кбит/сек | Английский
Субтитры: Русские (форс., полные), Украинские (форс., полные), английские (Forced, Full)
Навигация по главам: Есть
Общее
Уникальный идентификатор : 217987791229412979051763383491161652747 (0xA3FEEBE50FD3577CB6D37E8EB4E27E0B)
Полное имя : Dawn of the Planet of the Apes. (2014) BDRemux 1080p.mkv
Формат : Matroska
Версия формата : Version 2
Размер файла : 23,5 Гбайт
Продолжительность : 2 ч. 10 м.
Режим общего битрейта : Переменный
Общий поток : 25,8 Мбит/сек
Название фильма : Dawn of the Planet of the Apes. 2014
Дата кодирования : UTC 2014-11-12 13:51:46
Программа кодирования : mkvmerge v5.8.0 ('No Sleep / Pillow') built on Sep 2 2012 15:37:04
Библиотека кодирования : libebml v1.2.3 + libmatroska v1.3.0
Видео
Идентификатор : 1
Формат : AVC
Формат/Информация : Advanced Video Codec
Профиль формата : [email protected]
Параметр CABAC формата : Да
Параметр ReFrames формата : 4 кадра
Идентификатор кодека : V_MPEG4/ISO/AVC
Продолжительность : 2 ч. 10 м.
Вид битрейта : Переменный
Битрейт : 21,7 Мбит/сек
Максимальный битрейт : 35,5 Мбит/сек
Ширина : 1920 пикселей
Высота : 1080 пикселей
Соотношение сторон : 16:9
Режим частоты кадров : Постоянный
Частота кадров : 23,976 кадра/сек
Цветовое пространство : YUV
Субдискретизация насыщенности : 4:2:0
Битовая глубина : 8 бит
Тип развёртки : Прогрессивная
Бит/(Пиксели*Кадры) : 0.436
Размер потока : 19,7 Гбайт (84%)
Заголовок : Blu-Ray
Язык : English
Default : Да
Forced : Нет
Аудио #1
Идентификатор : 2
Формат : DTS
Формат/Информация : Digital Theater Systems
Режим : 16
Параметр Endianness формата : Big
Идентификатор кодека : A_DTS
Продолжительность : 2 ч. 10 м.
Вид битрейта : Постоянный
Битрейт : 768 Кбит/сек
Каналы : 6 каналов
Расположение каналов : Front: L C R, Side: L R, LFE
Частота : 48,0 КГц
Битовая глубина : 24 бит
Метод сжатия : С потерями
Размер потока : 716 Мбайт (3%)
Заголовок : D | License
Язык : Russian
Default : Да
Forced : Нет
Аудио #2
Идентификатор : 3
Формат : AC-3
Формат/Информация : Audio Coding 3
Расширение режима : CM (complete main)
Параметр Endianness формата : Big
Идентификатор кодека : A_AC3
Продолжительность : 2 ч. 10 м.
Вид битрейта : Постоянный
Битрейт : 448 Кбит/сек
Каналы : 6 каналов
Расположение каналов : Front: L C R, Side: L R, LFE
Частота : 48,0 КГц
Битовая глубина : 16 бит
Метод сжатия : С потерями
Размер потока : 418 Мбайт (2%)
Заголовок : D | License
Язык : Russian
Default : Нет
Forced : Нет
Аудио #3
Идентификатор : 4
Формат : AC-3
Формат/Информация : Audio Coding 3
Расширение режима : CM (complete main)
Параметр Endianness формата : Big
Идентификатор кодека : A_AC3
Продолжительность : 2 ч. 10 м.
Вид битрейта : Постоянный
Битрейт : 448 Кбит/сек
Каналы : 6 каналов
Расположение каналов : Front: L C R, Side: L R, LFE
Частота : 48,0 КГц
Битовая глубина : 16 бит
Метод сжатия : С потерями
Размер потока : 418 Мбайт (2%)
Заголовок : А | Д.Есарев
Язык : Russian
Default : Нет
Forced : Нет
Аудио #4
Идентификатор : 5
Формат : AC-3
Формат/Информация : Audio Coding 3
Расширение режима : CM (complete main)
Параметр Endianness формата : Big
Идентификатор кодека : A_AC3
Продолжительность : 2 ч. 10 м.
Вид битрейта : Постоянный
Битрейт : 448 Кбит/сек
Каналы : 6 каналов
Расположение каналов : Front: L C R, Side: L R, LFE
Частота : 48,0 КГц
Битовая глубина : 16 бит
Метод сжатия : С потерями
Размер потока : 418 Мбайт (2%)
Заголовок : D | License
Язык : Ukrainian
Default : Нет
Forced : Нет
Аудио #5
Идентификатор : 6
Формат : DTS
Формат/Информация : Digital Theater Systems
Профиль формата : ES
Режим : 16
Параметр Endianness формата : Big
Идентификатор кодека : A_DTS
Продолжительность : 2 ч. 10 м.
Вид битрейта : Постоянный
Битрейт : 1509 Кбит/сек
Каналы : 6 каналов
Расположение каналов : Front: L C R, Side: L R, LFE
Частота : 48,0 КГц
Битовая глубина : 24 бит
Метод сжатия : С потерями
Размер потока : 1,37 Гбайт (6%)
Заголовок : Original
Язык : English
Default : Нет
Forced : Нет
Текст #1
Идентификатор : 7
Формат : UTF-8
Идентификатор кодека : S_TEXT/UTF8
Идентификатор кодека/Информация : UTF-8 Plain Text
Заголовок : Forced
Язык : Russian
Default : Да
Forced : Нет
Текст #2
Идентификатор : 8
Формат : UTF-8
Идентификатор кодека : S_TEXT/UTF8
Идентификатор кодека/Информация : UTF-8 Plain Text
Заголовок : Full
Язык : Russian
Default : Нет
Forced : Нет
Текст #3
Идентификатор : 9
Формат : UTF-8
Идентификатор кодека : S_TEXT/UTF8
Идентификатор кодека/Информация : UTF-8 Plain Text
Заголовок : Forced
Язык : Ukrainian
Default : Нет
Forced : Нет
Текст #4
Идентификатор : 10
Формат : UTF-8
Идентификатор кодека : S_TEXT/UTF8
Идентификатор кодека/Информация : UTF-8 Plain Text
Заголовок : Full
Язык : Ukrainian
Default : Нет
Forced : Нет
Текст #5
Идентификатор : 11
Формат : UTF-8
Идентификатор кодека : S_TEXT/UTF8
Идентификатор кодека/Информация : UTF-8 Plain Text
Заголовок : Forced
Язык : English
Default : Нет
Forced : Нет
Текст #6
Идентификатор : 12
Формат : UTF-8
Идентификатор кодека : S_TEXT/UTF8
Идентификатор кодека/Информация : UTF-8 Plain Text
Заголовок : Full
Язык : English
Default : Нет
Forced : Нет
Меню
00:00:00.000 : en:00:00:00.000
00:03:21.159 : en:00:03:21.159
00:07:34.913 : en:00:07:34.913
00:12:36.547 : en:00:12:36.547
00:16:23.566 : en:00:16:23.566
00:18:47.043 : en:00:18:47.043
00:21:52.478 : en:00:21:52.478
00:25:26.692 : en:00:25:26.692
00:29:45.867 : en:00:29:45.867
00:31:50.617 : en:00:31:50.617
00:36:43.743 : en:00:36:43.743
00:39:07.554 : en:00:39:07.554
00:40:57.163 : en:00:40:57.163
00:44:12.233 : en:00:44:12.233
00:48:11.138 : en:00:48:11.138
00:50:31.528 : en:00:50:31.528
00:53:48.016 : en:00:53:48.016
00:57:25.317 : en:00:57:25.317
01:01:18.466 : en:01:01:18.466
01:02:35.377 : en:01:02:35.377
01:04:24.069 : en:01:04:24.069
01:06:21.728 : en:01:06:21.728
01:09:31.334 : en:01:09:31.334
01:13:56.974 : en:01:13:56.974
01:17:17.925 : en:01:17:17.925
01:20:53.390 : en:01:20:53.390
01:23:28.754 : en:01:23:28.754
01:26:08.997 : en:01:26:08.997
01:28:19.252 : en:01:28:19.252
01:33:24.390 : en:01:33:24.390
01:35:53.122 : en:01:35:53.122
01:38:38.621 : en:01:38:38.621
01:40:42.536 : en:01:40:42.536
01:44:07.533 : en:01:44:07.533
01:46:05.317 : en:01:46:05.317
01:47:54.468 : en:01:47:54.468
01:52:13.769 : en:01:52:13.769
01:56:27.480 : en:01:56:27.480
02:00:31.015 : en:02:00:31.015
02:01:35.038 : en:02:01:35.038


Релиз от:



   Похожие торренты   Торрент   Размер 
В этой теме нет новых непрочитанных сообщений. Планета обезьян: Революция / Dawn of the Planet of the Apes (2014) BDRemux 1080p | D

42 | 9

20.9 ГБ

В этой теме нет новых непрочитанных сообщений. Планета обезьян: Революция 2D, 3D / Dawn of the Planet of the Apes 2D, 3D (2014) BDRemux 1080p от ExKinoRay | 3D-Video | D | Лицензия

94 | 34

39.07 ГБ

В этой теме нет новых непрочитанных сообщений. Планета обезьян: Революция / Dawn of the Planet of the Apes (2014) UHD BDRemux 2160p | 4K | HDR | D, A | Лицензия

9 | 12

47.26 ГБ

В этой теме нет новых непрочитанных сообщений. Планета обезьян: Революция / Dawn of the Planet of the Apes (2014) Blu-ray CEE 1080p

187 | 72

43.96 ГБ

В этой теме нет новых непрочитанных сообщений. Планета обезьян: Революция / Dawn of the Planet of the Apes (2014) BDRip 1080p

1265 | 120

14.46 ГБ

В этой теме нет новых непрочитанных сообщений. Планета обезьян: Революция / Dawn of the Planet of the Apes (2014) WEB-DL 1080p | Чистый звук

6090 | 563

5.06 ГБ

В этой теме нет новых непрочитанных сообщений. Планета обезьян: Революция / Dawn of the Planet of the Apes (2014) BDRip 1080p от Neofilm

460 | 168

11.54 ГБ




Вы не можете начинать темы
Вы не можете отвечать на сообщения
Вы не можете редактировать свои сообщения
Вы не можете удалять свои сообщения
Вы не можете добавлять вложения

Перейти:  
Для Мосгорсуда, Роскомнадзора и рекламодателей: mosgorsud-torrent[собачка]yandex.ru
 Вход
ppkBB3cker v.2 © 2008-2014 @ PPK
[ Time : 0.070s | 19 Queries | GZIP : Off ]

cron