img image001 image001 image001 image001 image001 image001 image001 image001 image001 image001 image001 image001 image001 image001 image001

Planets Sun Sun Sun
Статистика раздачи
Автор: Nickolas3434 | Размер: 3.88 ГБ | Добавлен: 28 июн 2015
Раздают: 112    Качают: 24
Скачать торрент
Скачать торрент
Описание торрента

СообщениеДобавлено: 28 июн 2015 


Информация о фильме
Название: Посланники
Оригинальное название: The Messengers
Год выхода: 2007
Жанр: ужасы, триллер, драма
Режиссер: Оксид Пан, Дэнни Пан
В ролях: Кристен Стюарт — Джесс, Дилан МакДермотт — Рой, Пенелопа Энн Миллер — Дениз, Джон Корбетт — Бёруэлл, Дастин Миллиган — Бобби, Ивэн Тернер — Бен, Уильям Б. Дэвис — Колби, Брент Бриско — Плюм, Джоделль Ферланд — Мишель Роллинс, Татьяна Маслани — Линдсей Роллинз, Ширли МакКуин — Мэри Роллинз, Майкл Дэйнджерфилд — офицер полиции.
О фильме:
Cемья Соломон оставляет свою размеренную жизнь в Чикаго ради того, чтобы пожить на уединенной ферме в Северной Дакоте. Среди усыпанных подсолнухами идиллических полей, шестнадцатилетняя Джесс очень скоро понимает, каким кошмаром может обернуться уединение. Сразу после переезда, Джесс и ее трехлетний брат Бен видят зловещих призраков, которых никто кроме них не замечает.
Когда призраки начинают вести себя агрессивно, у родителей появляются сомнения в психическом здоровье Джесс. Ее небезоблачное прошлое сталкивается с прошлым тех, кто когда-то жил в этом доме — опасное соседство для раздираемого противоречиями подростка. Ей не верят те, кого она отчаянно пытается предупредить, пока еще не слишком поздно…

Страна: США Канада
Студия: Columbia Pictures, Screen Gems, Blue Star Pictures, Ghost House Pictures, Scarecrow Productions
Продолжительность: 01:30:26
Перевод: Дублированный, Профессиональный двухголосый, Авторский одноголосый, Оригинал
Файл
Кодек: x264
Качество: BDRip 720p
Видео: 1280x688 (1,85:1), 23.976 fps, 4299 kbps
Звук:
Аудио #1: AC3, 640 Kbps, 48.0 KHz, 6 ch (Rus) Дублированный
Аудио #2: AC3, 448 Kbps, 48.0 KHz, 6 ch (Rus) Профессиональный двухголосый
Аудио #3: AC3, 192 Kbps, 48.0 KHz, 2 ch (Rus) Авторский одноголосый, А.Дольский
Аудио #4: AC3, 448 Kbps, 48.0 KHz, 6 ch (Eng) Оригинал
Субтитры: Русские, Английские


Формат : Matroska
Версия формата : Version 2
Размер файла : 3,88 Гбайт
Продолжительность : 1 ч. 30 м.
Общий поток : 6149 Кбит/сек
Дата кодирования : UTC 2015-06-02 19:54:33
Программа кодирования : mkvmerge v5.4.0 ('Piper') built on Mar 10 2012 13:34:39
Библиотека кодирования : libebml v1.2.3 + libmatroska v1.3.0
Видео
Идентификатор : 1
Формат : AVC
Формат/Информация : Advanced Video Codec
Профиль формата : [email protected]
Параметр CABAC формата : Да
Параметр ReFrames формата : 8 кадров
Идентификатор кодека : V_MPEG4/ISO/AVC
Продолжительность : 1 ч. 30 м.
Битрейт : 4299 Кбит/сек
Ширина : 1280 пикселей
Высота : 688 пикселей
Соотношение сторон : 1,85:1
Режим частоты кадров : Постоянный
Частота кадров : 23,976 кадра/сек
Цветовое пространство : YUV
Субдискретизация насыщенности : 4:2:0
Битовая глубина : 8 бит
Тип развёртки : Прогрессивная
Бит/(Пиксели*Кадры) : 0.204
Размер потока : 2,72 Гбайт (70%)
Заголовок : The Messengers / Посланники (2007)
Библиотека кодирования : x264 core 125 r2208 d9d2288
Настройки программы : cabac=1 / ref=8 / deblock=1:-3:-3 / analyse=0x3:0x133 / me=umh / subme=11 / psy=1 / psy_rd=1.00:0.00 / mixed_ref=1 / me_range=32 / chroma_me=1 / trellis=2 / 8x8dct=1 / cqm=0 / deadzone=21,11 / fast_pskip=0 / chroma_qp_offset=-2 / threads=3 / lookahead_threads=1 / sliced_threads=0 / nr=0 / decimate=1 / interlaced=0 / bluray_compat=0 / constrained_intra=0 / bframes=8 / b_pyramid=2 / b_adapt=2 / b_bias=0 / direct=1 / weightb=1 / open_gop=0 / weightp=2 / keyint=250 / keyint_min=23 / scenecut=40 / intra_refresh=0 / rc=crf / mbtree=0 / crf=18.3 / qcomp=0.60 / qpmin=0 / qpmax=69 / qpstep=4 / ip_ratio=1.30 / pb_ratio=1.15 / aq=2:1.00
Язык : English
Default : Да
Forced : Нет
Аудио #1
Идентификатор : 2
Формат : AC-3
Формат/Информация : Audio Coding 3
Расширение режима : CM (complete main)
Параметр Endianness формата : Big
Идентификатор кодека : A_AC3
Продолжительность : 1 ч. 30 м.
Вид битрейта : Постоянный
Битрейт : 640 Кбит/сек
Каналы : 6 каналов
Расположение каналов : Front: L C R, Side: L R, LFE
Частота : 48,0 КГц
Битовая глубина : 16 бит
Метод сжатия : С потерями
Размер потока : 414 Мбайт (10%)
Заголовок : DUB (Russian)
Язык : Russian
Default : Да
Forced : Нет
Аудио #2
Идентификатор : 3
Формат : AC-3
Формат/Информация : Audio Coding 3
Расширение режима : CM (complete main)
Параметр Endianness формата : Big
Идентификатор кодека : A_AC3
Продолжительность : 1 ч. 30 м.
Вид битрейта : Постоянный
Битрейт : 448 Кбит/сек
Каналы : 6 каналов
Расположение каналов : Front: L C R, Side: L R, LFE
Частота : 48,0 КГц
Битовая глубина : 16 бит
Метод сжатия : С потерями
Размер потока : 290 Мбайт (7%)
Заголовок : DVO (Russian)
Язык : Russian
Default : Нет
Forced : Нет
Аудио #3
Идентификатор : 4
Формат : AC-3
Формат/Информация : Audio Coding 3
Расширение режима : CM (complete main)
Параметр Endianness формата : Big
Идентификатор кодека : A_AC3
Продолжительность : 1 ч. 30 м.
Вид битрейта : Постоянный
Битрейт : 192 Кбит/сек
Каналы : 2 канала
Расположение каналов : Front: L R
Частота : 48,0 КГц
Битовая глубина : 16 бит
Метод сжатия : С потерями
Размер потока : 124 Мбайт (3%)
Заголовок : AVO (А.Дольский)
Язык : Russian
Default : Нет
Forced : Нет
Аудио #4
Идентификатор : 5
Формат : AC-3
Формат/Информация : Audio Coding 3
Расширение режима : CM (complete main)
Параметр Endianness формата : Big
Идентификатор кодека : A_AC3
Продолжительность : 1 ч. 30 м.
Вид битрейта : Постоянный
Битрейт : 448 Кбит/сек
Каналы : 6 каналов
Расположение каналов : Front: L C R, Side: L R, LFE
Частота : 48,0 КГц
Битовая глубина : 16 бит
Метод сжатия : С потерями
Размер потока : 290 Мбайт (7%)
Заголовок : Original (English)
Язык : English
Default : Нет
Forced : Нет
Текст #1
Идентификатор : 6
Формат : UTF-8
Идентификатор кодека : S_TEXT/UTF8
Идентификатор кодека/Информация : UTF-8 Plain Text
Заголовок : Rus
Язык : Russian
Default : Нет
Forced : Нет
Текст #2
Идентификатор : 7
Формат : UTF-8
Идентификатор кодека : S_TEXT/UTF8
Идентификатор кодека/Информация : UTF-8 Plain Text
Заголовок : Eng
Язык : English
Default : Нет
Forced : Нет
Меню
00:00:00.000 : en:Chapter 1
00:05:46.471 : en:Chapter 2
00:10:49.858 : en:Chapter 3
00:15:51.492 : en:Chapter 4
00:18:59.138 : en:Chapter 5
00:23:08.262 : en:Chapter 6
00:31:21.546 : en:Chapter 7
00:37:07.267 : en:Chapter 8
00:43:41.494 : en:Chapter 9
00:48:10.137 : en:Chapter 10
00:53:38.841 : en:Chapter 11
01:00:08.605 : en:Chapter 12
01:05:41.020 : en:Chapter 13
01:10:54.208 : en:Chapter 14
01:13:26.777 : en:Chapter 15
01:18:37.171 : en:Chapter 16




   Похожие торренты   Торрент   Размер 
В этой теме нет новых непрочитанных сообщений. Посланники / The Messengers (2007) BDRip 720p от FLINTFILMS

0 | 16

2 ГБ

В этой теме нет новых непрочитанных сообщений. Посланники / The Messengers (2007) BDRip 720p от KinoGadget | iPad | D

12 | 4

2.17 ГБ

В этой теме нет новых непрочитанных сообщений. Посланники / The Messengers (2007) BDRip от HQCLUB

28 | 5

1.45 ГБ

В этой теме нет новых непрочитанных сообщений. Посланники / The Messengers (2007) BDRip от Dime & HQ-VIDEO

37 | 13

1.46 ГБ

В этой теме нет новых непрочитанных сообщений. Посланники / The Messengers (2007) BDRip 1080p от NNNB | D, P2, A

5 | 0

7.73 ГБ

В этой теме нет новых непрочитанных сообщений. Посланники / The Messengers (2007) BDRip-AVC от Leonardo and Scarabey | D | Лицензия

236 | 30

1.45 ГБ

В этой теме нет новых непрочитанных сообщений. Посланники / The Messengers (2007) HDRip

14 | 3

755.25 МБ




Вы не можете начинать темы
Вы не можете отвечать на сообщения
Вы не можете редактировать свои сообщения
Вы не можете удалять свои сообщения
Вы не можете добавлять вложения

Перейти:  
Для Мосгорсуда, Роскомнадзора и рекламодателей: mosgorsud-torrent[собачка]yandex.ru
 Вход
ppkBB3cker v.2 © 2008-2014 @ PPK
[ Time : 0.052s | 17 Queries | GZIP : Off ]

cron