img image001 image001 image001 image001 image001 image001 image001 image001 image001 image001 image001 image001 image001 image001 image001

Planets Sun Sun Sun
Статистика раздачи
Автор: Nickolas3434 | Размер: 4.08 ГБ | Добавлен: 17 мар 2017
Раздают: 306    Качают: 23
Скачать торрент
Скачать торрент
Описание торрента

СообщениеДобавлено: 17 мар 2017 

Информация о фильме
Название: Инкарнация
Оригинальное название: Incarnate
Страна: США
Студия: Blumhouse Productions
Жанр: ужасы, триллер
Год выпуска: 2016
Продолжительность: 01:26:10
Перевод: Профессиональный (дублированный) iTunes
Cубтитры: нет
Оригинальная аудиодорожка: английский
Режиссер: Брэд Пейтон / Brad Peyton
В ролях: Кэрис ван Хаутен, Аарон Экхарт, Дэвид Мазоуз, Каталина Сандино Морено, Эмджей Энтони, Мэтью Нэйбл, Бриэнн Хилл, Каролина Выдра, Кейр О'Доннелл, Марк Стегер
Описание: Он - не экзорцист. У него свои методы изгонять зло, поселившееся в людях. Но, проникнув в сознание 11-летнего мальчика, он понял, что никогда не сталкивался с таким сильным противником - древним и могущественным демоном, пришедшим из глубокого прошлого...

Тип релиза: BDRip 720p
Контейнер: MKV
Видео: MPEG-4 AVC, 5615 Кбит/с, 1280x536, 23,976 fps
Аудио: Rus, AC3, 384 kb/s (6 ch), 48 kHz
Аудио 2: Eng, AC3, 640 kb/s (6 ch), 48 kHz
Раздача от:
x264 [info]: frame I:1039 Avg QP:12.65 size: 97708
x264 [info]: frame P:24373 Avg QP:14.34 size: 52885
x264 [info]: frame B:98558 Avg QP:15.65 size: 23585
Format : Matroska
Format version : Version 4 / Version 2
File size : 4.08 GiB
Duration : 1h 26mn
Overall bit rate : 6 774 Kbps
Movie name : Инкарнация. (Tonik)
Encoded date : UTC 2017-03-17 07:18:25
Writing application : mkvmerge v7.1.0 ('Good Love') 64bit built on Jul 27 2014 13:06:55
Writing library : libebml v1.3.0 + libmatroska v1.4.1
_STATISTICS_WRITING_APP : mkvmerge v7.1.0 ('Good Love') 64bit built on Jul 27 2014 13:06:55
_STATISTICS_WRITING_DATE_UTC : 2017-03-17 07:18:25
_STATISTICS_TAGS : BPS DURATION NUMBER_OF_FRAMES NUMBER_OF_BYTES
DURATION : 01:26:10.592000000
NUMBER_OF_FRAMES : 161581
NUMBER_OF_BYTES : 413647360
Video
ID : 1
Format : AVC
Format/Info : Advanced Video Codec
Format profile : [email protected]
Format settings, CABAC : Yes
Format settings, ReFrames : 12 frames
Codec ID : V_MPEG4/ISO/AVC
Duration : 1h 26mn
Bit rate : 5 615 Kbps
Width : 1 280 pixels
Height : 536 pixels
Display aspect ratio : 2.40:1
Frame rate mode : Constant
Frame rate : 23.976 fps
Color space : YUV
Chroma subsampling : 4:2:0
Bit depth : 8 bits
Scan type : Progressive
Bits/(Pixel*Frame) : 0.341
Stream size : 3.38 GiB (83%)
Writing library : x264 core 148 r2762+56 6284cf3 t_mod_Custom [[email protected] X86_64]
Encoding settings : cabac=1 / ref=12 / deblock=1:-3:-3 / analyse=0x3:0x133 / me=umh / subme=11 / psy=1 / fade_compensate=0.00 / psy_rd=1.05:0.00 / mixed_ref=1 / me_range=32 / chroma_me=1 / trellis=2 / 8x8dct=1 / cqm=0 / deadzone=21,11 / fast_pskip=0 / chroma_qp_offset=-2 / threads=12 / lookahead_threads=2 / sliced_threads=0 / nr=0 / decimate=0 / interlaced=0 / bluray_compat=0 / constrained_intra=0 / fgo=0 / bframes=9 / b_pyramid=2 / b_adapt=2 / b_bias=0 / direct=3 / weightb=1 / open_gop=0 / weightp=2 / keyint=250 / keyint_min=23 / scenecut=40 / intra_refresh=0 / rc_lookahead=60 / rc=crf / mbtree=0 / crf=16.7000 / qcomp=0.60 / qpmin=0:0:0 / qpmax=69:69:69 / qpstep=4 / vbv_maxrate=62500 / vbv_bufsize=78125 / crf_max=0.0 / nal_hrd=none / filler=0 / ip_ratio=1.30 / pb_ratio=1.20 / aq=3:0.76 / aq-sensitivity=10.00 / aq-factor=1.00:1.00:1.00 / aq2=0 / aq3=0 / zones=50,474,crf=14
Language : English
Default : Yes
Forced : No
_STATISTICS_WRITING_APP : mkvmerge v7.1.0 ('Good Love') 64bit built on Jul 27 2014 13:06:55
_STATISTICS_WRITING_DATE_UTC : 2017-03-17 07:18:25
_STATISTICS_TAGS : BPS DURATION NUMBER_OF_FRAMES NUMBER_OF_BYTES
DURATION : 01:26:10.582000000
NUMBER_OF_FRAMES : 123970
NUMBER_OF_BYTES : 3714968103
Audio #1
ID : 2
Format : AC-3
Format/Info : Audio Coding 3
Mode extension : CM (complete main)
Format settings, Endianness : Big
Codec ID : A_AC3
Duration : 1h 26mn
Bit rate mode : Constant
Bit rate : 384 Kbps
Channel(s) : 6 channels
Channel positions : Front: L C R, Side: L R, LFE
Sampling rate : 48.0 KHz
Bit depth : 16 bits
Compression mode : Lossy
Stream size : 237 MiB (6%)
Title : iTunes
Language : Russian
Default : Yes
Forced : No
Audio #2
ID : 3
Format : AC-3
Format/Info : Audio Coding 3
Mode extension : CM (complete main)
Format settings, Endianness : Big
Codec ID : A_AC3
Duration : 1h 26mn
Bit rate mode : Constant
Bit rate : 640 Kbps
Channel(s) : 6 channels
Channel positions : Front: L C R, Side: L R, LFE
Sampling rate : 48.0 KHz
Bit depth : 16 bits
Compression mode : Lossy
Stream size : 394 MiB (9%)
Language : English
Default : No
Forced : No
Menu
00:00:00.000 : en:00:00:00.000
00:06:08.910 : en:00:06:08.910
00:10:42.892 : en:00:10:42.892
00:14:44.467 : en:00:14:44.467
00:18:01.580 : en:00:18:01.580
00:22:12.790 : en:00:22:12.790
00:26:04.480 : en:00:26:04.480
00:29:52.708 : en:00:29:52.708
00:35:28.335 : en:00:35:28.335
00:40:51.449 : en:00:40:51.449
00:45:05.620 : en:00:45:05.620
00:49:24.962 : en:00:49:24.962
00:52:59.468 : en:00:52:59.468
00:56:32.306 : en:00:56:32.306
01:01:35.692 : en:01:01:35.692
01:06:31.362 : en:01:06:31.362
01:11:10.725 : en:01:11:10.725
01:18:54.730 : en:01:18:54.730





   Похожие торренты   Торрент   Размер 
В этой теме нет новых непрочитанных сообщений. Инкарнация / Incarnate (2016) BDRip 720p от ExKinoRay | iTunes

286 | 13

3.71 ГБ

В этой теме нет новых непрочитанных сообщений. Инкарнация / Incarnate (2016) BDRip 720p от k.e.n & MegaPeer | iTunes

134 | 8

3.07 ГБ

В этой теме нет новых непрочитанных сообщений. Инкарнация / Incarnate (2016) BDRip 720p от KinoGadget | iPad | iTunes

9 | 3

903.74 МБ

В этой теме нет новых непрочитанных сообщений. Инкарнация / Incarnate (2016) BDRip-AVC | iTunes

53 | 9

742.52 МБ

В этой теме нет новых непрочитанных сообщений. Инкарнация / Incarnate (2016) BDRip от ExKinoRay | iTunes

131 | 16

1.42 ГБ

В этой теме нет новых непрочитанных сообщений. Инкарнация / Incarnate (2016) BDRip от ImperiaFilm | КПК | iTunes

21 | 12

294.56 МБ

В этой теме нет новых непрочитанных сообщений. Инкарнация / Incarnate (2016) BDRip от MegaPeer | iTunes

391 | 12

1.42 ГБ




Вы не можете начинать темы
Вы не можете отвечать на сообщения
Вы не можете редактировать свои сообщения
Вы не можете удалять свои сообщения
Вы не можете добавлять вложения

Перейти:  
Для Мосгорсуда, Роскомнадзора и рекламодателей: mosgorsud-torrent[собачка]yandex.ru
 Вход
ppkBB3cker v.2 © 2008-2014 @ PPK
[ Time : 0.088s | 18 Queries | GZIP : Off ]

cron