img image001 image001 image001 image001 image001 image001 image001 image001 image001 image001 image001 image001 image001 image001 image001

Planets Sun Sun Sun
Статистика раздачи
Автор: Nickolas3434 | Размер: 7.85 ГБ | Добавлен: 21 май 2017
Раздают: 191    Качают: 15
Скачать торрент
Скачать торрент
Описание торрента

СообщениеДобавлено: 21 май 2017 

Информация о фильме
Название: Последствия
Оригинальное название: Aftermath
Год выхода: 2017
Жанр: триллер, драма
Режиссер: Эллиотт Лестер
В ролях: Арнольд Шварценеггер, Мэгги Грэйс, Кевин Зегерс, Скут МакНэри, Ханна Уэр, Мариана Клавено, Гленн Моршауэр, Ларри Салливан, Мартин Донован
О фильме: Потеряв тех, ради кого жил, он преследует единственную цель: посмотреть в глаза невольного убийцы и услышать слова сожаления. Более года поиска приводит Романа к авиадиспетчеру Джейку, управлявшему курсом самолета в момент катастрофы.

Страна: США
Студия: Emmett/Furla Films, Hat and Cat Productions
Продолжительность: 01:33:49
Перевод: Дублированный | Лицензия
Файл
Качество: BDRip 1080p
Формат: MKV
Видео: 1920x804 (2.40:1), 24.000 fps, AVC MPEG-4 (x264), [email protected], ~ 11.3 Mb/s, 0.305 bit/pixel
Аудио: 48 kHz, AC3 Dolby Digital, 3/2 (L,C,R,l,r) + LFE ch, ~448 kbps
Субтитры: Нет
Релиз без рекламы
General
Unique ID : 224579366250381221953302610764051516383 (0xA8F469A277C116D28BE2B126F8E40BDF)
Complete name : D:ВременнаяPosledstvija.2017.D.BDRip.1080p (1).mkv
Format : Matroska
Format version : Version 2
File size : 7.85 GiB
Duration : 1 h 33 min
Overall bit rate : 12.0 Mb/s
Movie name : MoreFilms
Encoded date : UTC 2017-05-20 11:54:24
Writing application : mkvmerge v7.8.0 ('River Man') 32bit built on Apr 3 2015 12:11:22
Writing library : libebml v1.3.1 + libmatroska v1.4.2
Video
ID : 1
Format : AVC
Format/Info : Advanced Video Codec
Format profile : [email protected]
Format settings, CABAC : Yes
Format settings, ReFrames : 4 frames
Codec ID : V_MPEG4/ISO/AVC
Duration : 1 h 33 min
Bit rate : 11.3 Mb/s
Width : 1 920 pixels
Height : 804 pixels
Display aspect ratio : 2.40:1
Frame rate mode : Constant
Frame rate : 24.000 FPS
Color space : YUV
Chroma subsampling : 4:2:0
Bit depth : 8 bits
Scan type : Progressive
Bits/(Pixel*Frame) : 0.305
Stream size : 7.40 GiB (94%)
Language : Russian
Default : Yes
Forced : No
Statistics Tags Issue : mkvmerge v11.0.0 ('Alive') 64bit 2017-05-19 21:48:01 / mkvmerge v7.8.0 ('River Man') 32bit built on Apr 3 2015 12:11:22 2017-05-20 11:54:24
FromStats_BitRate : 11530891
FromStats_Duration : 01:33:49.792000000
FromStats_FrameCount : 135115
FromStats_StreamSize : 8114564748
Audio
ID : 2
Format : AC-3
Format/Info : Audio Coding 3
Format settings, Endianness : Big
Codec ID : A_AC3
Duration : 1 h 33 min
Bit rate mode : Constant
Bit rate : 448 kb/s
Channel(s) : 6 channels
Channel positions : Front: L C R, Side: L R, LFE
Sampling rate : 48.0 kHz
Frame rate : 31.250 FPS (1536 spf)
Bit depth : 16 bits
Compression mode : Lossy
Stream size : 301 MiB (4%)
Service kind : Complete Main
Default : Yes
Forced : No
Menu
00:00:00.000 : ru:
00:01:10.917 : ru:
00:10:58.542 : ru:
00:19:49.458 : ru:
00:31:19.583 : ru:
00:45:50.125 : ru:
00:58:07.000 : ru:
01:10:35.208 : ru:
01:22:28.333 : ru:





   Похожие торренты   Торрент   Размер 
В этой теме нет новых непрочитанных сообщений. Последствия / Aftermath (2017) BDRip 1080p от ExKinoRay | Лицензия

68 | 8

7.88 ГБ

В этой теме нет новых непрочитанных сообщений. Последствия / Aftermath (2017) BDRemux 1080p от ExKinoRay | RUS Transfer | Лицензия

31 | 2

15.38 ГБ

В этой теме нет новых непрочитанных сообщений. Последствия / Aftermath (2017) BDRip от ExKinoRay | RUS Transfer | Лицензия

158 | 8

1.46 ГБ

В этой теме нет новых непрочитанных сообщений. Последствия / Aftermath (2017) BDRip 720p от ExKinoRay | Лицензия

209 | 3

3.19 ГБ

В этой теме нет новых непрочитанных сообщений. Последствия / Aftermath (2017) BDRip 720p от HELLYWOOD | Лицензия

92 | 8

2.91 ГБ

В этой теме нет новых непрочитанных сообщений. Последствия / Aftermath (2017) BDRip-AVC от R.G.Resident | RUS Transfer | Лицензия

75 | 2

1.52 ГБ

В этой теме нет новых непрочитанных сообщений. Последствия / Aftermath (2017) BDRip 720p от k.e.n & MegaPeer | Лицензия

52 | 4

3.36 ГБ




Вы не можете начинать темы
Вы не можете отвечать на сообщения
Вы не можете редактировать свои сообщения
Вы не можете удалять свои сообщения
Вы не можете добавлять вложения

Перейти:  
Для Мосгорсуда, Роскомнадзора и рекламодателей: mosgorsud-torrent[собачка]yandex.ru
 Вход
ppkBB3cker v.2 © 2008-2014 @ PPK
[ Time : 0.058s | 19 Queries | GZIP : Off ]

cron