img image001 image001 image001 image001 image001 image001 image001 image001 image001 image001 image001 image001 image001 image001 image001

Planets Sun Sun Sun
Статистика раздачи
Автор: Nickolas3434 | Размер: 4.67 ГБ | Добавлен: 04 дек 2017
Раздают: 16    Качают: 0
Скачать торрент
Скачать торрент
Описание торрента

СообщениеДобавлено: 04 дек 2017 

Информация о фильме
Название: Рок-звезда
Оригинальное название: Rock Star
Год выхода: 2001
Жанр: драма, комедия, музыка
Режиссер: Стивен Херек
В ролях: Марк Уолберг, Дженнифер Энистон, Доминик Уэст, Джейсон Флеминг, Тимоти Сполл, Тимоти Олифант, Закк Уайлд, Джейсон Бонем, Джефф Пилсон, Блас Елиас
О фильме:
Днем Крис Коул занимается починкой копировальной техники. По ночам он — подражает рок-группе «Steel Dragon» самой крутой в мире «тяжелого металла». Неожиданно ему представилась удивительная возможность: стать новым солистом настоящего «Steel Dragon»!
В одночасье он, никому не известный парнишка из маленького городка, становится супер-звездой. В одночасье он, и его менеджер/подружка Эмили погружаются в мир безумства, которое трудно себе представить.

Страна: США
Продолжительность: 01:46:05
Перевод: Профессиональный (дублированный)
Файл
Кодек: HEVC x265 10bit
Качество: BDRip-HEVC 1080p
Видео: 1920x800, 23.976 кадр/сек, 5468 Кбит/сек, (Main [email protected]@High) 10bit
Звук:
Аудио1: Русская, AC3 384 Кбит/сек, 6 канала(ов),16bit 48,0 КГц
Аудио2: English, AC3 448 Кбит/сек, 6 канала(ов),16bit 48,0 КГц
Субтитры: Русские, English
Навиигация по главам: Есть
General
Unique ID : 190539978038175945972571610372790831275 (0x8F58AA38E552D1C2BDDFB2775F7048AB)
Complete name : S:HEVCRock Star (2001) BDRip 1080p [HEVC] 10Bit.mkv
Format : Matroska
Format version : Version 4 / Version 2
File size : 4.67 GiB
Duration : 1 h 46 min
Overall bit rate : 6 302 kb/s
Movie name : rip_by_Cthulhu
Encoded date : UTC 2017-12-03 22:07:01
Writing application : mkvmerge v18.0.0 ('Apricity') 64-bit
Writing library : libebml v1.3.5 + libmatroska v1.4.8
Cover : Yes
Attachments : cover.jpg
Video
ID : 1
Format : HEVC
Format/Info : High Efficiency Video Coding
Format profile : Main [email protected]@High
Codec ID : V_MPEGH/ISO/HEVC
Duration : 1 h 46 min
Bit rate : 5 468 kb/s
Width : 1 920 pixels
Height : 800 pixels
Display aspect ratio : 2.40:1
Frame rate mode : Constant
Frame rate : 23.976 (24000/1001) FPS
Color space : YUV
Chroma subsampling : 4:2:0
Bit depth : 10 bits
Bits/(Pixel*Frame) : 0.148
Stream size : 4.05 GiB (87%)
Writing library : x265 2.5+31-df2de6ea407d:[Windows][GCC 7.1.0][64 bit] 10bit
Encoding settings : cpuid=1050111 / frame-threads=5 / numa-pools=4 / wpp / no-pmode / no-pme / no-psnr / no-ssim / log-level=3 / input-csp=1 / input-res=1920x800 / interlace=0 / total-frames=0 / level-idc=51 / high-tier=1 / uhd-bd=0 / ref=4 / no-allow-non-conformance / no-repeat-headers / annexb / no-aud / no-hrd / info / hash=0 / no-temporal-layers / open-gop / min-keyint=23 / keyint=240 / bframes=10 / b-adapt=2 / b-pyramid / bframe-bias=0 / rc-lookahead=40 / lookahead-slices=5 / scenecut=40 / no-intra-refresh / ctu=64 / min-cu-size=8 / no-rect / no-amp / max-tu-size=32 / tu-inter-depth=2 / tu-intra-depth=2 / limit-tu=0 / rdoq-level=2 / dynamic-rd=0.00 / no-ssim-rd / signhide / no-tskip / nr-intra=0 / nr-inter=0 / no-constrained-intra / strong-intra-smoothing / max-merge=3 / limit-refs=3 / no-limit-modes / me=2 / subme=6 / merange=57 / temporal-mvp / weightp / weightb / no-analyze-src-pics / deblock=-3:-3 / no-sao / no-sao-non-deblock / rd=3 / no-early-skip / rskip / no-fast-intra / no-tskip-fast / no-cu-lossless / no-b-intra / no-splitrd-skip / rdpenalty=0 / psy-rd=1.50 / psy-rdoq=0.00 / no-rd-refine / analysis-reuse-mode=0 / no-lossless / cbqpoffs=0 / crqpoffs=0 / rc=crf / crf=19.0 / qcomp=0.60 / qpstep=4 / stats-write=0 / stats-read=0 / vbv-maxrate=50000 / vbv-bufsize=35714 / vbv-init=0.9 / crf-max=30.0 / crf-min=0.0 / ipratio=1.40 / pbratio=1.30 / aq-mode=1 / aq-strength=1.00 / cutree / zone-count=0 / no-strict-cbr / qg-size=32 / no-rc-grain / qpmax=69 / qpmin=0 / no-const-vbv / sar=1 / overscan=0 / videoformat=5 / range=0 / colorprim=2 / transfer=2 / colormatrix=2 / chromaloc=0 / display-window=0 / max-cll=0,0 / min-luma=0 / max-luma=1023 / log2-max-poc-lsb=8 / vui-timing-info / vui-hrd-info / slices=1 / opt-qp-pps / opt-ref-list-length-pps / no-multi-pass-opt-rps / scenecut-bias=0.05 / no-opt-cu-delta-qp / no-aq-motion / no-hdr / no-hdr-opt / no-dhdr10-opt / analysis-reuse-level=5 / scale-factor=0 / refine-intra=0 / refine-inter=0 / refine-mv=0 / no-limit-sao / ctu-info=0
Language : English
Default : Yes
Forced : No
Color range : Full
Audio #1
ID : 2
Format : AC-3
Format/Info : Audio Coding 3
Format settings, Endianness : Big
Codec ID : A_AC3
Duration : 1 h 46 min
Bit rate mode : Constant
Bit rate : 384 kb/s
Channel(s) : 6 channels
Channel positions : Front: L C R, Side: L R, LFE
Sampling rate : 48.0 kHz
Frame rate : 31.250 FPS (1536 SPF)
Bit depth : 16 bits
Compression mode : Lossy
Stream size : 291 MiB (6%)
Language : Russian
Service kind : Complete Main
Default : Yes
Forced : No
Audio #2
ID : 3
Format : AC-3
Format/Info : Audio Coding 3
Format settings, Endianness : Big
Codec ID : A_AC3
Duration : 1 h 46 min
Bit rate mode : Constant
Bit rate : 448 kb/s
Channel(s) : 6 channels
Channel positions : Front: L C R, Side: L R, LFE
Sampling rate : 48.0 kHz
Frame rate : 31.250 FPS (1536 SPF)
Bit depth : 16 bits
Compression mode : Lossy
Stream size : 340 MiB (7%)
Language : English
Service kind : Complete Main
Default : No
Forced : No
Text #1
ID : 4
Format : UTF-8
Codec ID : S_TEXT/UTF8
Codec ID/Info : UTF-8 Plain Text
Duration : 1 h 42 min
Bit rate : 73 b/s
Count of elements : 938
Stream size : 54.9 KiB (0%)
Language : Russian
Default : Yes
Forced : No
Text #2
ID : 5
Format : UTF-8
Codec ID : S_TEXT/UTF8
Codec ID/Info : UTF-8 Plain Text
Duration : 1 h 42 min
Bit rate : 45 b/s
Count of elements : 912
Stream size : 33.8 KiB (0%)
Language : English
Default : No
Forced : No
Menu
00:00:00.000 : :Глава 1
00:03:54.651 : :Глава 2
00:05:54.896 : :Глава 3
00:08:24.295 : :Глава 4
00:10:53.903 : :Глава 5
00:13:38.192 : :Глава 6
00:14:59.315 : :Глава 7
00:17:00.561 : :Глава 8
00:23:19.564 : :Глава 9
00:27:17.427 : :Глава 10
00:29:47.786 : :Глава 11
00:34:05.918 : :Глава 12
00:40:15.704 : :Глава 13
00:43:17.969 : :Глава 14
00:45:51.290 : :Глава 15
00:48:35.495 : :Глава 16
00:52:35.861 : :Глава 17
00:55:06.845 : :Глава 18
01:02:24.407 : :Глава 19
01:05:14.327 : :Глава 20
01:09:10.062 : :Глава 21
01:12:47.071 : :Глава 22
01:17:14.755 : :Глава 23
01:22:40.287 : :Глава 24
01:26:23.761 : :Глава 25
01:30:27.588 : :Глава 26
01:35:39.608 : :Глава 27
01:40:29.440 : :Глава 28
01:46:05.400 : :Глава 29


Релиз от: Cthulhu



   Похожие торренты   Торрент   Размер 
В этой теме нет новых непрочитанных сообщений. Рок-звезда / Rock Star (2001) BDRip 1080p от MediaClub | D, P2, A

67 | 6

9.33 ГБ

В этой теме нет новых непрочитанных сообщений. Рок-звезда / Rock Star (2001) BDRemux 1080p

4 | 12

21.85 ГБ

В этой теме нет новых непрочитанных сообщений. Рок-звезда / Rock Star (2001) BDRip-AVC от 0ptimus | D, P2, A

52 | 18

2.83 ГБ

В этой теме нет новых непрочитанных сообщений. Рок-звезда / Rock Star (2001) BDRip от HQCLUB

144 | 9

2.18 ГБ

В этой теме нет новых непрочитанных сообщений. Рок-звезда / Rock Star (2001) BDRip 720p от MediaClub | D, P2, A

39 | 8

6.52 ГБ

В этой теме нет новых непрочитанных сообщений. Рок-звезда / Rock Star (2001) DVDRip-AVC

20 | 1

1.68 ГБ

В этой теме нет новых непрочитанных сообщений. Рок-звезда / Rock Star (2001) DVDRip

102 | 6

1.46 ГБ




Вы не можете начинать темы
Вы не можете отвечать на сообщения
Вы не можете редактировать свои сообщения
Вы не можете удалять свои сообщения
Вы не можете добавлять вложения

Перейти:  
Для Мосгорсуда, Роскомнадзора и рекламодателей: mosgorsud-torrent[собачка]yandex.ru
 Вход
ppkBB3cker v.2 © 2008-2014 @ PPK
[ Time : 0.044s | 18 Queries | GZIP : Off ]

cron