img image001 image001 image001 image001 image001 image001 image001 image001 image001 image001 image001 image001 image001 image001 image001

Planets Sun Sun Sun
Статистика раздачи
Автор: Nickolas3434 | Размер: 1.28 ГБ | Добавлен: 12 янв 2018
Раздают: 20    Качают: 1
Скачать торрент
Скачать торрент
Описание торрента

СообщениеДобавлено: 12 янв 2018 

Год выпуска: 2017
Оригинальное название: November Criminals
Жанр: Детектив, Криминал, Драма
Страна: США
Возраст: 16+
Режиссер: Саша Джерваси
В ролях: Энсел Элгорт, Хлоя Грейс Морец, Кэтрин Кинер, Дэвид Стрэтэйрн, Кори Хардрикт, Терри Кинни, Дэн Флаэрти, Тесса Альбертсон, Виктор Уильямс, Элли Маршалл
Описание: 18-летний Эддисон распространяет в школе наркотики, оскорбляет учителей, зло шутит надо всеми. Но когда от пули погибает его одноклассник, Эддисон берется за смелое расследование и попутно влюбляется в свою напарницу.
Продолжительность: 01:25:54
Перевод: Профессиональный многоголосый [Лицензия]
Оригинальная дорожка: есть
Релиз-группа:
Качество видео: BDRip 720p Исходник: Blu-Ray Remux (1080p) Формат: mp4
Видео кодек: MPEG-4 AVC Аудио кодек: AAC
Видео: 1280x720 (16:9) at 23.976 fps, AVC at 1 796 kbps avg, 0.081 bit/pixel
Аудио №1 Rus: 48.0 KHz, AAC, 2 ch, 160.0 Kbps
Аудио №2 Eng: 48.0 KHz, AAC, 2 ch, 160.0 Kbps
Субтитры: русские (полные), английские (полные)
Навигация по главам: есть
Размер: 1.28 GiB
avs [info]: 1280x720p 1:1 @ 24000/1001 fps (cfr)
x264 [info]: using SAR=1/1
x264 [info]: using cpu capabilities: MMX2 SSE2Fast SSSE3 Cache64
x264 [info]: profile High, level 4.1
x264 [info]: frame I:888 Avg QP:14.80 size:101147
x264 [info]: frame P:24689 Avg QP:18.39 size: 22062
x264 [info]: frame B:97999 Avg QP:21.06 size: 5332
x264 [info]: consecutive B-frames: 1.4% 1.7% 3.6% 28.9% 12.1% 23.8% 9.7% 14.7% 1.9% 1.4% 0.7%
x264 [info]: mb I I16..4: 14.8% 62.5% 22.8%
x264 [info]: mb P I16..4: 2.1% 6.9% 0.9% P16..4: 46.4% 11.6% 14.5% 0.3% 0.1% skip:17.2%
x264 [info]: mb B I16..4: 0.1% 0.5% 0.1% B16..8: 35.3% 4.0% 0.8% direct: 2.4% skip:56.8% L0:43.5% L1:51.2% BI: 5.3%
x264 [info]: coded y,uvDC,uvAC intra: 64.4% 75.5% 45.1% inter: 10.2% 14.9% 1.3%
x264 [info]: i16 v,h,dc,p: 34% 17% 4% 45%
x264 [info]: i8 v,h,dc,ddl,ddr,vr,hd,vl,hu: 20% 15% 18% 5% 9% 10% 8% 8% 7%
x264 [info]: i4 v,h,dc,ddl,ddr,vr,hd,vl,hu: 28% 16% 16% 5% 9% 8% 7% 6% 4%
x264 [info]: i8c dc,h,v,p: 52% 18% 20% 10%
x264 [info]: Weighted P-Frames: Y:5.2% UV:2.5%
x264 [info]: ref P L0: 51.3% 8.9% 16.4% 6.3% 5.0% 4.2% 3.7% 2.1% 2.1% 0.1% 0.0%
x264 [info]: ref B L0: 78.2% 9.5% 5.3% 2.3% 1.8% 1.5% 1.0% 0.3%
x264 [info]: ref B L1: 94.1% 5.9%
x264 [info]: kb/s:1795.87
encoded 123576 frames, 3.66 fps, 1795.87 kb/s

General
Complete name : ...Noyabrskie-prestupniki-2017_KinoGadget.mp4
Format : MPEG-4
Format profile : Base Media
Codec ID : isom (isom)
File size : 1.28 GiB
Duration : 1 h 25 min
Overall bit rate mode : Variable
Overall bit rate : 2 127 kb/s
Movie name : Ноябрьские преступники | KinoGadget
Performer : Саша Джерваси
Director : Саша Джерваси
Actor : Энсел Элгорт / Хлоя Грейс Морец / Кэтрин Кинер / Дэвид Стрэтэйрн / Кори Хардрикт / Терри Кинни / Дэн Флаэрти / Тесса Альбертсон / Виктор Уильямс / Элли Маршалл
Screenplay by : Стивен Найт / Саша Джерваси / Сэм Мансон
Producer : Марк Бьенсток / Ара Кешишьян / Бет О’Нил
Genre : Crime, Drama, Mystery
ContentType : Short Film
Recorded date : 2017
Encoded date : UTC 2018-01-07 08:14:20
Tagged date : UTC 2018-01-07 08:38:50
Cover : Yes
ContentRating : mpaa|PG-13|300|
LongDeion : 18-летний Эддисон распространяет в школе наркотики, оскорбляет учителей, зло шутит надо всеми. Но когда от пули погибает его одноклассник, Эддисон берется за смелое расследование и попутно влюбляется в свою напарницу.
HDVideo : Yes
Video
ID : 1
Format : AVC
Format/Info : Advanced Video Codec
Format profile : [email protected]
Format settings : CABAC / 9 Ref Frames
Format settings, CABAC : Yes
Format settings, ReFrames : 9 frames
Codec ID : avc1
Codec ID/Info : Advanced Video Coding
Duration : 1 h 25 min
Bit rate : 1 796 kb/s
Maximum bit rate : 19.5 Mb/s
Width : 1 280 pixels
Height : 720 pixels
Display aspect ratio : 16:9
Frame rate mode : Constant
Frame rate : 23.976 (24000/1001) FPS
Color space : YUV
Chroma subsampling : 4:2:0
Bit depth : 8 bits
Scan type : Progressive
Bits/(Pixel*Frame) : 0.081
Stream size : 1.08 GiB (84%)
Writing library : x264 core 152 r2851 ba24899
Encoding settings : cabac=1 / ref=9 / deblock=1:-2:-1 / analyse=0x3:0x133 / me=umh / subme=7 / psy=1 / psy_rd=1.00:0.00 / mixed_ref=1 / me_range=32 / chroma_me=1 / trellis=2 / 8x8dct=1 / cqm=0 / deadzone=21,11 / fast_pskip=0 / chroma_qp_offset=-2 / threads=3 / lookahead_threads=1 / sliced_threads=0 / nr=0 / decimate=1 / interlaced=0 / bluray_compat=0 / constrained_intra=0 / bframes=10 / b_pyramid=2 / b_adapt=2 / b_bias=0 / direct=1 / weightb=1 / open_gop=0 / weightp=2 / keyint=250 / keyint_min=25 / scenecut=40 / intra_refresh=0 / rc_lookahead=60 / rc=crf / mbtree=1 / crf=19.0 / qcomp=0.60 / qpmin=0 / qpmax=69 / qpstep=4 / vbv_maxrate=62500 / vbv_bufsize=78125 / crf_max=0.0 / nal_hrd=none / filler=0 / ip_ratio=1.40 / aq=1:1.00
Encoded date : UTC 2018-01-07 05:07:35
Tagged date : UTC 2018-01-07 08:14:50
Audio #1
ID : 2
Format : AAC
Format/Info : Advanced Audio Codec
Format profile : LC
Codec ID : mp4a-40-2
Duration : 1 h 25 min
Bit rate mode : Variable
Bit rate : 160 kb/s
Maximum bit rate : 165 kb/s
Channel(s) : 2 channels
Channel positions : Front: L R
Sampling rate : 48.0 kHz
Frame rate : 46.875 FPS (1024 SPF)
Compression mode : Lossy
Stream size : 98.3 MiB (8%)
Language : Russian
Encoded date : UTC 2018-01-07 05:15:20
Tagged date : UTC 2018-01-07 08:14:50
Audio #2
ID : 3
Format : AAC
Format/Info : Advanced Audio Codec
Format profile : LC
Codec ID : mp4a-40-2
Duration : 1 h 25 min
Bit rate mode : Variable
Bit rate : 160 kb/s
Maximum bit rate : 165 kb/s
Channel(s) : 2 channels
Channel positions : Front: L R
Sampling rate : 48.0 kHz
Frame rate : 46.875 FPS (1024 SPF)
Compression mode : Lossy
Stream size : 98.3 MiB (8%)
Language : English
Encoded date : UTC 2018-01-07 05:57:08
Tagged date : UTC 2018-01-07 08:14:50
Text #1
ID : 4
Format : Timed Text
Codec ID : tx3g
Duration : 1 h 25 min
Bit rate mode : Variable
Bit rate : 94 b/s
Stream size : 59.4 KiB (0%)
Language : Russian
Forced : No
Encoded date : UTC 2018-01-07 08:14:49
Tagged date : UTC 2018-01-07 08:14:50
Text #2
ID : 5
Format : Timed Text
Codec ID : tx3g
Duration : 1 h 16 min
Bit rate mode : Variable
Bit rate : 77 b/s
Stream size : 43.3 KiB (0%)
Language : English
Forced : No
Encoded date : UTC 2018-01-07 08:14:50
Tagged date : UTC 2018-01-07 08:14:50
Menu
00:00:00.000 : Chapter 1
00:08:00.521 : Chapter 2
00:12:34.837 : Chapter 3
00:16:58.392 : Chapter 4
00:20:41.740 : Chapter 5
00:23:47.884 : Chapter 6
00:28:06.559 : Chapter 7
00:33:31.592 : Chapter 8
00:41:05.504 : Chapter 9
00:46:20.986 : Chapter 10
00:50:08.338 : Chapter 11
00:56:56.579 : Chapter 12
00:59:55.717 : Chapter 13
01:05:51.197 : Chapter 14
01:09:35.963 : Chapter 15
01:13:45.170 : Chapter 16



Данный рип предназначен для просмотра на мобильных гаджетах с поддержкой формата mp4



   Похожие торренты   Торрент   Размер 
В этой теме нет новых непрочитанных сообщений. Ноябрьские преступники / November Criminals (2017) BDRip-AVC от k.e.n & MegaPeer | Лицензия

13 | 0

2.18 ГБ

В этой теме нет новых непрочитанных сообщений. Ноябрьские преступники / November Criminals (2017) BDRip 1080p | Лицензия

121 | 11

9.11 ГБ

В этой теме нет новых непрочитанных сообщений. Ноябрьские преступники / November Criminals (2017) BDRip от ExKinoRay | Лицензия

268 | 17

1.46 ГБ

В этой теме нет новых непрочитанных сообщений. Ноябрьские преступники / November Criminals (2017) Blu-ray EUR 1080p | Лицензия

15 | 6

24.26 ГБ

В этой теме нет новых непрочитанных сообщений. Ноябрьские преступники / November Criminals (2017) HDRip-AVC от Kaztorrents | Лицензия

119 | 3

1.46 ГБ

В этой теме нет новых непрочитанных сообщений. Ноябрьские преступники / November Criminals (2017) BDRemux 1080p от ExKinoRay | Лицензия

26 | 5

16.59 ГБ

В этой теме нет новых непрочитанных сообщений. Защитники (2017) BDRip 720p от KinoGadget | iPad | Лицензия

109 | 4

2.08 ГБ




Вы не можете начинать темы
Вы не можете отвечать на сообщения
Вы не можете редактировать свои сообщения
Вы не можете удалять свои сообщения
Вы не можете добавлять вложения

Перейти:  
Для Мосгорсуда, Роскомнадзора и рекламодателей: mosgorsud-torrent[собачка]yandex.ru
 Вход
ppkBB3cker v.2 © 2008-2014 @ PPK
[ Time : 0.058s | 19 Queries | GZIP : Off ]

cron