img image001 image001 image001 image001 image001 image001 image001 image001 image001 image001 image001 image001 image001 image001 image001

Planets Sun Sun Sun
Статистика раздачи
Автор: Nickolas3434 | Размер: 56.85 ГБ | Добавлен: 12 янв 2018
Раздают: 5    Качают: 4
Скачать торрент
Скачать торрент
Описание торрента

СообщениеДобавлено: 12 янв 2018 

Производство: США / Chartoff-Winkler Productions, Metro-Goldwyn-Mayer (MGM), New Line Cinema
Жанр: драма, спорт
Режиссер: Райан Куглер
Продюсер: Роберт Чартофф, Уильям Чартофф, Сильвестр Сталлоне
Актеры: Майкл Б. Джордан, Сильвестр Сталлоне, Тесса Томпсон, Филисия Рашад, Андре Уорд, Тони Белью, Ричи Костер, Джейкоб ’Стич’ Дюран, Грэм МакТавиш, Вуд Харрис, Брайан Энтони Уилсон, Джои Эй, Кэш Гойнс, Кевин Кинг Темплтон, Лерой Уилсон мл., Маурицио Овейлл, Марк Смит, Джосу Ривера, Ганс Марреро, Мэнни Айала
Описание:
В центре внимания сын Аполло Крида — первого серьезного соперника Рокки Бальбоа на ринге, впоследствии ставшего лучшим другом героя. Талант отца в какой-то момент проявляется и в Криде-младшем, и юноша отправляется на поиски наставника, коим для него в итоге становится постаревший Рокки, тоже не слишком жаждущий возвращаться к старым делам. Даже в качестве тренера.

Релиз от: NIMA4K, arxivariys
Продолжительность: 02:13:10
Качество: UHD BDRemux (HDR)
Перевод: Дублированный (Лицензия BD CEE), Профессиональный (многоголосый закадровый) (IDEAFILM), Авторский (одноголосый, закадровый) (М. Чадов)
Субтитры: Русские (forced, full, нотабеноид), английские (full, SDH)
Видео: HEVC/H.265, 3840x2160p, (16:9), 46,0 Мбит/сек, 23.976 fps
Аудио 1: AC3, 6 ch, 640 kbps - Русский, Дубляж
Аудио 2: DTS-HD MA, 8 ch, 4815 kbps - Русский, IDEAFILM
Аудио 3: DTS-HD MA, 8 ch, 4844 kbps - Русский, М. Чадов
Аудио 4: DTS-HD MA, 8 ch, 4807 kbps - Английский
General
Unique ID : 242463525598867553244945656632196379442 (0xB668C6C4978DF810975DAE053F7EB332)
Complete name : Крид.Наследие Рокки.2015.UHD.BluRay.Remux.2160p.mkv
Format : Matroska
Format version : Version 4 / Version 2
File size : 56.8 GiB
Duration : 2 h 13 min
Overall bit rate : 61.1 Mb/s
Encoded date : UTC 2017-11-26 16:33:24
Writing application : mkvmerge v18.0.0 ('Apricity') 64-bit
Writing library : libebml v1.3.5 + libmatroska v1.4.8
Attachments : poster.jpg
Video
ID : 1
Format : HEVC
Format/Info : High Efficiency Video Coding
Format profile : Main [email protected]@High
Codec ID : V_MPEGH/ISO/HEVC
Duration : 2 h 13 min
Bit rate : 46.0 Mb/s
Width : 3 840 pixels
Height : 2 160 pixels
Display aspect ratio : 16:9
Frame rate mode : Constant
Frame rate : 23.976 (24000/1001) FPS
Color space : YUV
Chroma subsampling : 4:2:0 (Type 2)
Bit depth : 10 bits
Bits/(Pixel*Frame) : 0.231
Stream size : 42.8 GiB (75%)
Writing library : ATEME Titan KFE 3.7.3 (4.7.3.1003)
Default : Yes
Forced : No
Color range : Limited
Color primaries : BT.2020
Transfer characteristics : SMPTE ST 2084
Matrix coefficients : BT.2020 non-constant
Mastering display color primaries : R: x=0.680000 y=0.320000, G: x=0.265000 y=0.690000, B: x=0.150000 y=0.060000, White point: x=0.312700 y=0.329000
Mastering display luminance : min: 0.0050 cd/m2, max: 4000.0000 cd/m2
Audio #1
ID : 2
Format : AC-3
Format/Info : Audio Coding 3
Format settings, Endianness : Big
Codec ID : A_AC3
Duration : 2 h 13 min
Bit rate mode : Constant
Bit rate : 640 kb/s
Channel(s) : 6 channels
Channel positions : Front: L C R, Side: L R, LFE
Sampling rate : 48.0 kHz
Frame rate : 31.250 FPS (1536 SPF)
Bit depth : 16 bits
Compression mode : Lossy
Stream size : 610 MiB (1%)
Title : Dub, Blu-Ray
Language : Russian
Service kind : Complete Main
Default : Yes
Forced : No
Audio #2
ID : 3
Format : DTS
Format/Info : Digital Theater Systems
Format profile : MA / Core
Mode : 16
Format settings, Endianness : Big
Codec ID : A_DTS
Duration : 2 h 13 min
Bit rate mode : Variable / Constant
Bit rate : 4 815 kb/s / 1 509 kb/s
Channel(s) : 8 channels / 6 channels
Channel positions : Front: L C R, Side: L R, Back: L R, LFE / Front: L C R, Side: L R, LFE
Sampling rate : 48.0 kHz
Frame rate : 93.750 FPS (512 SPF)
Bit depth : 24 bits
Compression mode : Lossless / Lossy
Stream size : 4.48 GiB (8%)
Title : MVO, IDEAFILM
Language : Russian
Default : No
Forced : No
Audio #3
ID : 4
Format : DTS
Format/Info : Digital Theater Systems
Format profile : MA / Core
Mode : 16
Format settings, Endianness : Big
Codec ID : A_DTS
Duration : 2 h 13 min
Bit rate mode : Variable / Constant
Bit rate : 4 844 kb/s / 1 509 kb/s
Channel(s) : 8 channels / 6 channels
Channel positions : Front: L C R, Side: L R, Back: L R, LFE / Front: L C R, Side: L R, LFE
Sampling rate : 48.0 kHz
Frame rate : 93.750 FPS (512 SPF)
Bit depth : 24 bits
Compression mode : Lossless / Lossy
Stream size : 4.51 GiB (8%)
Title : М. Чадов
Language : Russian
Default : No
Forced : No
Audio #4
ID : 5
Format : DTS
Format/Info : Digital Theater Systems
Format profile : MA / Core
Mode : 16
Format settings, Endianness : Big
Codec ID : A_DTS
Duration : 2 h 13 min
Bit rate mode : Variable / Constant
Bit rate : 4 807 kb/s / 1 509 kb/s
Channel(s) : 8 channels / 6 channels
Channel positions : Front: L C R, Side: L R, Back: L R, LFE / Front: L C R, Side: L R, LFE
Sampling rate : 48.0 kHz
Frame rate : 93.750 FPS (512 SPF)
Bit depth : 24 bits
Compression mode : Lossless / Lossy
Stream size : 4.48 GiB (8%)
Language : English
Default : No
Forced : No
Text #1
ID : 6
Format : UTF-8
Codec ID : S_TEXT/UTF8
Codec ID/Info : UTF-8 Plain Text
Duration : 2 h 12 min
Bit rate : 3 b/s
Count of elements : 78
Stream size : 3.67 KiB (0%)
Title : forced
Language : Russian
Default : Yes
Forced : No
Text #2
ID : 7
Format : UTF-8
Codec ID : S_TEXT/UTF8
Codec ID/Info : UTF-8 Plain Text
Duration : 2 h 12 min
Bit rate : 102 b/s
Count of elements : 2130
Stream size : 99.6 KiB (0%)
Title : full
Language : Russian
Default : No
Forced : No
Text #3
ID : 8
Format : UTF-8
Codec ID : S_TEXT/UTF8
Codec ID/Info : UTF-8 Plain Text
Duration : 2 h 11 min
Bit rate : 104 b/s
Count of elements : 2171
Stream size : 101 KiB (0%)
Title : нотабеноид
Language : Russian
Default : No
Forced : No
Text #4
ID : 9
Format : UTF-8
Codec ID : S_TEXT/UTF8
Codec ID/Info : UTF-8 Plain Text
Duration : 2 h 11 min
Bit rate : 69 b/s
Count of elements : 2092
Stream size : 66.6 KiB (0%)
Title : full
Language : English
Default : No
Forced : No
Text #5
ID : 10
Format : UTF-8
Codec ID : S_TEXT/UTF8
Codec ID/Info : UTF-8 Plain Text
Duration : 2 h 11 min
Bit rate : 74 b/s
Count of elements : 2209
Stream size : 71.5 KiB (0%)
Title : SDH
Language : English
Default : No
Forced : No
Menu
00:00:00.000 : en:Chapter 1
00:09:14.387 : en:Chapter 2
00:22:06.742 : en:Chapter 3
00:31:31.932 : en:Chapter 4
00:41:34.659 : en:Chapter 5
00:52:18.010 : en:Chapter 6
01:01:32.063 : en:Chapter 7
01:09:13.941 : en:Chapter 8
01:19:00.986 : en:Chapter 9
01:25:13.650 : en:Chapter 10
01:32:27.792 : en:Chapter 11
01:41:16.445 : en:Chapter 12
01:50:14.441 : en:Chapter 13
02:01:07.719 : en:Chapter 14
02:06:34.962 : en:Chapter 15

Скриншоты:



   Похожие торренты   Торрент   Размер 
В этой теме нет новых непрочитанных сообщений. Крид: Наследие Рокки / Creed (2015) BDRemux 1080p от ExKinoRay | Лицензия

17 | 4

28.14 ГБ

В этой теме нет новых непрочитанных сообщений. Крид: Наследие Рокки / Creed (2015) BDRemux | IDEAFILM

408 | 21

29.31 ГБ

В этой теме нет новых непрочитанных сообщений. Крид: Наследие Рокки / Creed (2015) BDRemux 1080p от ExKinoRay | iTunes

60 | 2

27.9 ГБ

В этой теме нет новых непрочитанных сообщений. Крид: Наследие Рокки / Creed (2015) BDRemux 1080p от HDLine | P | IDEAFILM

193 | 30

32.86 ГБ

В этой теме нет новых непрочитанных сообщений. Крид: Наследие Рокки / Creed (2015) Blu-Ray от HDClub | Лицензия

106 | 4

38.14 ГБ

В этой теме нет новых непрочитанных сообщений. Крид: Наследие Рокки / Creed (2015) HDRip | Лицензия

399 | 20

2.11 ГБ

В этой теме нет новых непрочитанных сообщений. Крид: Наследие Рокки / Creed (2015) HDRip-AVC | D | Лицензия

283 | 99

746.8 МБ




Вы не можете начинать темы
Вы не можете отвечать на сообщения
Вы не можете редактировать свои сообщения
Вы не можете удалять свои сообщения
Вы не можете добавлять вложения

Перейти:  
Для Мосгорсуда, Роскомнадзора и рекламодателей: mosgorsud-torrent[собачка]yandex.ru
 Вход
ppkBB3cker v.2 © 2008-2014 @ PPK
[ Time : 0.042s | 17 Queries | GZIP : Off ]

cron