img image001 image001 image001 image001 image001 image001 image001 image001 image001 image001 image001 image001 image001 image001 image001

Planets Sun Sun Sun
Статистика раздачи
Автор: Nickolas3434 | Размер: 2.19 ГБ | Добавлен: 12 янв 2018
Раздают: 15    Качают: 0
Скачать торрент
Скачать торрент
Описание торрента

СообщениеДобавлено: 12 янв 2018 

Сотрудничество / Cooperation / Confidential Assignment
Год выпуска: 2017
Страна: Южная Корея
Жанр: боевик
Продолжительность: 02:04:14
Перевод: Любительский (двухголосый закадровый)
Русские субтитры: есть
Режиссер: Ким Сон Хун / Kim Seong-hoon-III
В ролях: Хён Бин / Hyeon Bin - Им Чоль Рён / Lim Cheol-ryeong (임철령)
Ю Хэ Чжин / Yoo Hae-jin (유해진) - Кан Чжин Тэ / Kang Jin-tae (강진태)
Ким Чжу Хёк / Kim Joo-hyeok (김주혁) - Ча Ги Сон / Cha Gi-seong (차기성)
Чан Ён Нам / Jang Young-nam (장영남) - Со Ён / So-yeon (소연)
Ли Хэ Ён / Lee Hae-yeong-I (이해영) - Detective Squad Chief Pyo (표반장)
Ли Дон Хви / Lee Dong-hwi (이동휘) - Пак Мён Хо / Park Myeong-ho (박명호)
Юна / Yoona (윤아) - Пак Мин Ён / Park Min-yeong (민영)
Описание: Северокорейского детектива Им Чоль Рёна (Хён Бин) посылают в Южную Корею, чтобы схватить главаря банды беженцев Ча Ги Сона (Ким Чжу Хёк). Там Им Чоль Рён объединяет усилия с южнокорейским детективом Кан Чжин Тэ (Ю Хэ Чжин). Впервые две страны кооперируются для поимки опасного преступника.
Релиз группы: и
Доп. информация:
Перевод осуществляла команда фансаб-группы "Альянс"
Перевод: Cale
Редакция: Lady Flame
Ретайм, тайпсет: AngelMa
Озвучивание: Ворон и Wenlana
Смотреть обязательно с форсированными субтитрами на надписи!
Прежде чем качать видео и комментировать, скачайте сэмпл и послушайте!

Качество видео: HDRip-AVC - Сэмпл
Исходник: Confidential.Assignment.2017.1080p.BluRay.x264-WiKi
Формат видео: MKV
Видео: 720x304 (2.35:1), 24,000 fps, x264 ~1600 kbps avg, 0.305 bit/pixel
Аудио: 48 kHz, AC3 Dolby Digital, 3/2 (L,C,R,l,r) + LFE ch, ~448 kbps (Русский)
Аудио 2: 48 kHz, AC3 Dolby Digital, 3/2 (L,C,R,l,r) + LFE ch, ~448 kbps (Корейский)
Формат субтитров: [форсированный(надписи) / полные]softsub (ass)


Формат : Matroska
Версия формата : Version 4 / Version 2
Размер файла : 2,19 Гбайт
Продолжительность : 2 ч. 4 м.
Общий поток : 2519 Кбит/сек
Дата кодирования : UTC 2018-01-07 13:22:50
Программа кодирования : mkvmerge v8.2.0 ('World of Adventure') 32bit
Библиотека кодирования : libebml v1.3.1 + libmatroska v1.4.2
Attachments : DS_Moster.ttf / Impress BT Cyr.ttf / meiryo.ttc / meiryob.ttc / RistrettoPro-Regular.ttf / tunga.ttf
Видео
Идентификатор : 1
Формат : AVC
Формат/Информация : Advanced Video Codec
Профиль формата : [email protected]
Настройки формата : CABAC / 10 Ref Frames
Параметр CABAC формата : Да
Параметр RefFrames формата : 10 кадров
Идентификатор кодека : V_MPEG4/ISO/AVC
Продолжительность : 2 ч. 4 м.
Битрейт : 1600 Кбит/сек
Ширина : 720 пикселей
Высота : 304 пикселя
Соотношение сторон : 2,35:1
Режим частоты кадров : Постоянный
Частота кадров : 24,000 кадра/сек
Цветовое пространство : YUV
Субдискретизация насыщенности : 4:2:0
Битовая глубина : 8 бит
Тип развёртки : Прогрессивная
Бит/(Пиксели*Кадры) : 0.305
Размер потока : 1,39 Гбайт (64%)
Библиотека кодирования : x264 core 148 r2638 7599210
Настройки программы : cabac=1 / ref=10 / deblock=1:-2:-1 / analyse=0x3:0x133 / me=umh / subme=10 / psy=1 / psy_rd=1.00:0.00 / mixed_ref=1 / me_range=24 / chroma_me=1 / trellis=2 / 8x8dct=1 / cqm=0 / deadzone=21,11 / fast_pskip=0 / chroma_qp_offset=-2 / threads=6 / lookahead_threads=1 / sliced_threads=0 / nr=0 / decimate=0 / interlaced=0 / bluray_compat=0 / constrained_intra=0 / bframes=10 / b_pyramid=2 / b_adapt=2 / b_bias=0 / direct=3 / weightb=1 / open_gop=1 / weightp=2 / keyint=240 / keyint_min=24 / scenecut=40 / intra_refresh=0 / rc_lookahead=60 / rc=2pass / mbtree=0 / bitrate=1600 / ratetol=1.0 / qcomp=0.70 / qpmin=10 / qpmax=51 / qpstep=4 / cplxblur=20.0 / qblur=0.5 / vbv_maxrate=62500 / vbv_bufsize=78125 / nal_hrd=none / filler=0 / ip_ratio=1.40 / pb_ratio=1.30 / aq=1:1.00
Язык : English
Default : Да
Forced : Нет
Цветовой диапазон : Limited
Коэффициенты матрицы : BT.709
Аудио #1
Идентификатор : 2
Формат : AC-3
Формат/Информация : Audio Coding 3
Идентификатор кодека : A_AC3
Продолжительность : 2 ч. 4 м.
Вид битрейта : Постоянный
Битрейт : 448 Кбит/сек
Каналы : 6 каналов
Расположение каналов : Front: L C R, Side: L R, LFE
Частота : 48,0 КГц
Частота кадров : 31,250 кадров/сек (1536 SPF)
Битовая глубина : 16 бит
Метод сжатия : С потерями
Размер потока : 398 Мбайт (18%)
Заголовок : Ворон и Wenlana
Язык : Russian
Default : Да
Forced : Нет
Аудио #2
Идентификатор : 3
Формат : AC-3
Формат/Информация : Audio Coding 3
Идентификатор кодека : A_AC3
Продолжительность : 2 ч. 4 м.
Вид битрейта : Постоянный
Битрейт : 448 Кбит/сек
Каналы : 6 каналов
Расположение каналов : Front: L C R, Side: L R, LFE
Частота : 48,0 КГц
Частота кадров : 31,250 кадров/сек (1536 SPF)
Битовая глубина : 16 бит
Метод сжатия : С потерями
Размер потока : 398 Мбайт (18%)
Заголовок : Original
Язык : Korean
Default : Нет
Forced : Нет
Текст #1
Идентификатор : 4
Формат : ASS
Идентификатор кодека : S_TEXT/ASS
Идентификатор кодека/Информация : Advanced Sub Station Alpha
Продолжительность : 1 ч. 59 м.
Битрейт : 1 бит/сек
ElementCount : 13
Метод сжатия : Без потерь
Размер потока : 1,55 Кбайт (0%)
Заголовок : форсированный(надписи)
Язык : Russian
Default : Да
Forced : Да
Текст #2
Идентификатор : 5
Формат : ASS
Идентификатор кодека : S_TEXT/ASS
Идентификатор кодека/Информация : Advanced Sub Station Alpha
Продолжительность : 2 ч. 1 м.
Битрейт : 142 бит/сек
ElementCount : 1738
Метод сжатия : Без потерь
Размер потока : 126 Кбайт (0%)
Заголовок : Перевод - [фансаб-группы "Альянс"]
Язык : Russian
Default : Нет
Forced : Нет

Dialogue: 0,0:03:25.17,0:03:27.35,Default,,0,0,0,,{i1}Жди подкрепление.NЯ выезжаю.{i0}
Dialogue: 0,0:03:29.18,0:03:32.73,Default,,0,0,0,,Позволим им уйти,Nчтобы потом преследовать?
Dialogue: 0,0:03:32.91,0:03:35.15,Default,,0,0,0,,Поторопитесь,Nчтобы не было поздно.
Dialogue: 0,0:03:44.33,0:03:46.16,Default,,0,0,0,,Вы, ребята, охраняйте тыл.
Dialogue: 0,0:03:46.27,0:03:47.43,Default,,0,0,0,,Остальные - за мной.
Dialogue: 0,0:03:47.55,0:03:48.76,Default,,0,0,0,,Товарищ Чоль Рён...
Dialogue: 0,0:03:49.44,0:03:51.06,Default,,0,0,0,,Давайте дождемся подкрепления.
Dialogue: 0,0:03:52.41,0:03:54.13,Default,,0,0,0,,Всю ночь ждать будете?
Dialogue: 0,0:04:26.36,0:04:27.94,Default,,0,0,0,,Всем стоять!
Dialogue: 0,0:04:28.81,0:04:30.20,Default,,0,0,0,,Стреляйте.
Dialogue: 0,0:04:34.88,0:04:36.33,Default,,0,0,0,,Не двигаться!
Dialogue: 0,0:04:45.07,0:04:46.96,Default,,0,0,0,,Вам же сказали не дергаться.
Dialogue: 0,0:04:47.07,0:04:48.59,Default,,0,0,0,,Считаю до трех.
Dialogue: 0,0:04:48.76,0:04:51.63,Default,,0,0,0,,Если к тому моменту не сложите оружие...
Dialogue: 0,0:04:51.81,0:04:54.16,Default,,0,0,0,,снесу вам головы.
Dialogue: 0,0:04:54.92,0:04:56.08,Default,,0,0,0,,Раз...
Dialogue: 0,0:04:56.94,0:04:57.85,Default,,0,0,0,,Два...
Dialogue: 0,0:04:57.85,0:04:59.17,Default,,0,0,0,,Эй, Им Чоль Рён!
Dialogue: 0,0:05:02.27,0:05:04.06,Default,,0,0,0,,Разве я не велел ждать?
Dialogue: 0,0:05:04.98,0:05:06.98,Default,,0,0,0,,Игнорируешь приказы?
Dialogue: 0,0:05:09.02,0:05:12.87,Default,,0,0,0,,Мы все товарищи по оружию,Nзачем убивать друг друга?
Dialogue: 0,0:05:13.60,0:05:15.50,Default,,0,0,0,,Опусти пистолет и спускайся сюда.
Dialogue: 0,0:05:15.91,0:05:18.47,Default,,0,0,0,,Какой толк с этой конфронтации?
Dialogue: 0,0:05:21.54,0:05:23.07,Default,,0,0,0,,Только подумай...
Dialogue: 0,0:05:23.15,0:05:25.51,Default,,0,0,0,,С этими пластинами нам большеNне придется
Dialogue: 0,0:05:25.51,0:05:28.08,Default,,0,0,0,,вкалывать на благо Республики.
Dialogue: 0,0:05:29.05,0:05:30.35,Default,,0,0,0,,Что скажешь, Чоль Рён?



   Похожие торренты   Торрент   Размер 
В этой теме нет новых непрочитанных сообщений. Кооперация / Confidential Assignment / Gongjo (2017) BDRip 1080p от Batafurai Team и Sound Group | L2

12 | 7

11.37 ГБ

В этой теме нет новых непрочитанных сообщений. Кооперация / Confidential Assignment / Gongjo (2017) BDRip 720p | L2

109 | 22

4.54 ГБ

В этой теме нет новых непрочитанных сообщений. Кооперация / Confidential Assignment / Gongjo (2017) WEB-DLRip от ExKinoRay | L2

196 | 23

1.45 ГБ

В этой теме нет новых непрочитанных сообщений. Кооперация / Confidential Assignment / Gongjo (2017) BDRip 1080p | L2

60 | 10

9.34 ГБ

В этой теме нет новых непрочитанных сообщений. Телохранитель / The bodyguard (2016) HDRip-AVC от Batafurai Team и SOUND-GROUP | L2

29 | 8

1.47 ГБ

В этой теме нет новых непрочитанных сообщений. Царь обезьян / У Кун / Wu Kong (2017) WEBDLRip-AVC от Batafurai Team и SOUND-GROUP | L2

56 | 14

2.05 ГБ

В этой теме нет новых непрочитанных сообщений. Исчезнувший убийца / The Vanished Murderer (2015) HDRip-AVC от Batafurai Team и SOUND-GROUP | L2

21 | 0

2.05 ГБ




Вы не можете начинать темы
Вы не можете отвечать на сообщения
Вы не можете редактировать свои сообщения
Вы не можете удалять свои сообщения
Вы не можете добавлять вложения

Перейти:  
Для Мосгорсуда, Роскомнадзора и рекламодателей: mosgorsud-torrent[собачка]yandex.ru
 Вход
ppkBB3cker v.2 © 2008-2014 @ PPK
[ Time : 0.056s | 18 Queries | GZIP : Off ]

cron