img image001 image001 image001 image001 image001 image001 image001 image001 image001 image001 image001 image001 image001 image001 image001

Planets Sun Sun Sun
Статистика раздачи
Автор: Nickolas3434 | Размер: 2.11 ГБ | Добавлен: 12 янв 2018
Раздают: 349    Качают: 34
Скачать торрент
Скачать торрент
Описание торрента

СообщениеДобавлено: 12 янв 2018 

Информация о фильме
Название: Наемник
Оригинальное название: American Assassin
Год выхода: 2017
Жанр: Боевик
Режиссер: Майкл Куэста
В ролях: Дилан О’Брайен, Майкл Китон, Санаа Лэтэн, Шива Негар, Тейлор Китч, Дэвид Суше, Навид Негабан, Скотт Эдкинс, Шарлотта Вега, Кристофер Уэбстер
О фильме:
23-летний агент ЦРУ Митч Рэпп (Дилан О'Брайен), еще в раннем возрасте оставшийся без родителей, тяжело переживает гибель своей невесты, ставшей жертвой теракта. Решив помочь убитому горем Митчу, заместитель директора ЦРУ Ирэн Кеннеди (Санаа Лэтэн) назначает ему нового наставника в лице ветерана Холодной войны Стэна Хёрли (Майкл Китон), который должен обучить Рэппа навыкам противодействия терроризму. В самый разгар обучения Хёрли и Рэпп вынуждены отправиться на опасное задание, их цель — найти и остановить неизвестного оперативника по прозвищу «Призрак» (Тэйлор Китч), который планирует начать Третью мировую войну на Ближнем Востоке.

Выпущено: США, CBS Films, Di Bonaventura Pictures, Lionsgate, Nick Wechsler Productions
Продолжительность: 01:51:38
Перевод: Дублированный | iTunes
Субтитры: Русские (форсированные), английские
Файл
Кодек: H.264
Качество: BDRip (AVC)
Видео: MPEG-4 AVC, 1869 Кбит/с, 1024x428
Звук: Русский (AC3, 6 ch, 384 Кбит/с), английский (AC3, 6 ch, 448 Кбит/с)
Без какой-либо рекламы
Формат : Matroska
Версия формата : Version 4 / Version 2
Размер файла : 2,11 Гбайт
Продолжительность : 1 ч. 51 м.
Общий поток : 2700 Кбит/сек
Название фильма : American.Assassin.2017.x264.BDRip.(AVC).ExKinoRay
Дата кодирования : UTC 2018-01-07 20:07:44
Программа кодирования : mkvmerge v17.0.0 ('Be Ur Friend') 64-bit
Библиотека кодирования : libebml v1.3.5 + libmatroska v1.4.8
Видео
Идентификатор : 1
Формат : AVC
Формат/Информация : Advanced Video Codec
Профиль формата : [email protected]
Параметр CABAC формата : Да
Параметр ReFrames формата : 12 кадров
Идентификатор кодека : V_MPEG4/ISO/AVC
Продолжительность : 1 ч. 51 м.
Битрейт : 1869 Кбит/сек
Ширина : 1024 пикселя
Высота : 428 пикселей
Соотношение сторон : 2,40:1
Режим частоты кадров : Постоянный
Частота кадров : 23,976 (24000/1001) кадра/сек
Цветовое пространство : YUV
Субдискретизация насыщенности : 4:2:0
Битовая глубина : 8 бит
Тип развёртки : Прогрессивная
Бит/(Пиксели*Кадры) : 0.178
Размер потока : 1,46 Гбайт (69%)
Заголовок : ExKinoRay
Библиотека кодирования : x264 core 152 r2851 ba24899
Настройки программы : cabac=1 / ref=12 / deblock=1:-2:-2 / analyse=0x3:0x133 / me=umh / subme=11 / psy=1 / psy_rd=1.00:0.00 / mixed_ref=1 / me_range=32 / chroma_me=1 / trellis=2 / 8x8dct=1 / cqm=0 / deadzone=21,11 / fast_pskip=0 / chroma_qp_offset=-3 / threads=6 / lookahead_threads=1 / sliced_threads=0 / nr=0 / decimate=0 / interlaced=0 / bluray_compat=0 / constrained_intra=0 / bframes=10 / b_pyramid=2 / b_adapt=2 / b_bias=0 / direct=3 / weightb=1 / open_gop=0 / weightp=2 / keyint=240 / keyint_min=23 / scenecut=40 / intra_refresh=0 / rc_lookahead=40 / rc=2pass / mbtree=0 / bitrate=1869 / ratetol=1.0 / qcomp=0.60 / qpmin=0 / qpmax=69 / qpstep=4 / cplxblur=20.0 / qblur=0.5 / vbv_maxrate=50000 / vbv_bufsize=62500 / nal_hrd=none / filler=0 / ip_ratio=1.40 / pb_ratio=1.30 / aq=2:1.00
Язык : English
Default : Да
Forced : Нет
Аудио #1
Идентификатор : 2
Формат : AC-3
Формат/Информация : Audio Coding 3
Расширение режима : CM (complete main)
Параметр Endianness формата : Big
Идентификатор кодека : A_AC3
Продолжительность : 1 ч. 51 м.
Вид битрейта : Постоянный
Битрейт : 384 Кбит/сек
Каналы : 6 каналов
Расположение каналов : Front: L C R, Side: L R, LFE
Частота : 48,0 КГц
Частота кадров : 31,250 кадров/сек (1536 spf)
Метод сжатия : С потерями
Размер потока : 307 Мбайт (14%)
Заголовок : iTunes
Язык : Russian
Default : Да
Forced : Нет
Аудио #2
Идентификатор : 3
Формат : AC-3
Формат/Информация : Audio Coding 3
Расширение режима : CM (complete main)
Параметр Endianness формата : Big
Идентификатор кодека : A_AC3
Продолжительность : 1 ч. 51 м.
Вид битрейта : Постоянный
Битрейт : 448 Кбит/сек
Каналы : 6 каналов
Расположение каналов : Front: L C R, Side: L R, LFE
Частота : 48,0 КГц
Частота кадров : 31,250 кадров/сек (1536 spf)
Метод сжатия : С потерями
Размер потока : 358 Мбайт (17%)
Язык : English
Default : Нет
Forced : Нет
Текст #1
Идентификатор : 4
Формат : UTF-8
Идентификатор кодека : S_TEXT/UTF8
Идентификатор кодека/Информация : UTF-8 Plain Text
Продолжительность : 1 ч. 35 м.
Битрейт : 3 бит/сек
Count of elements : 61
Размер потока : 2,66 Кбайт (0%)
Заголовок : форсированные
Язык : Russian
Default : Да
Forced : Нет
Текст #2
Идентификатор : 5
Формат : UTF-8
Идентификатор кодека : S_TEXT/UTF8
Идентификатор кодека/Информация : UTF-8 Plain Text
Продолжительность : 1 ч. 42 м.
Битрейт : 42 бит/сек
Count of elements : 1109
Размер потока : 31,6 Кбайт (0%)
Язык : English
Default : Нет
Forced : Нет
Меню
00:00:00.000 : en:Chapter 01
00:08:55.534 : en:Chapter 02
00:16:09.969 : en:Chapter 03
00:23:30.408 : en:Chapter 04
00:29:16.421 : en:Chapter 05
00:36:45.703 : en:Chapter 06
00:43:58.636 : en:Chapter 07
00:52:32.482 : en:Chapter 08
00:57:09.759 : en:Chapter 09
01:07:08.190 : en:Chapter 10
01:14:02.604 : en:Chapter 11
01:17:44.660 : en:Chapter 12
01:22:37.118 : en:Chapter 13
01:27:14.228 : en:Chapter 14
01:34:03.137 : en:Chapter 15
01:43:25.365 : en:Chapter 16
01:51:37.899 : en:Chapter 17


Релиз от:



   Похожие торренты   Торрент   Размер 
В этой теме нет новых непрочитанных сообщений. Наемник / American Assassin (2017) BDRip-AVC от ExKinoRay | iTunes

56 | 7

747.44 МБ

В этой теме нет новых непрочитанных сообщений. Наемник / American Assassin (2017) BDRip от ExKinoRay | iTunes

159 | 0

1.41 ГБ

В этой теме нет новых непрочитанных сообщений. Наемник / American Assassin (2017) BDRip 720p от ExKinoRay | iTunes

1224 | 124

5.76 ГБ

В этой теме нет новых непрочитанных сообщений. Наемник / American Assassin (2017) BDRip 1080p от ExKinoRay | iTunes

883 | 96

10.29 ГБ

В этой теме нет новых непрочитанных сообщений. Наемник / American Assassin (2017) BDRemux 1080p от ExKinoRay | iTunes

57 | 12

23.84 ГБ

В этой теме нет новых непрочитанных сообщений. Наемник / American Assassin (2017) UHD BDRemux 2160p от ExKinoRay | 4K | HDR | iTunes

36 | 22

56.12 ГБ

В этой теме нет новых непрочитанных сообщений. Наемник / American Assassin (2017) BDRip-AVC от ExKinoRay | L

1425 | 36

2.16 ГБ




Вы не можете начинать темы
Вы не можете отвечать на сообщения
Вы не можете редактировать свои сообщения
Вы не можете удалять свои сообщения
Вы не можете добавлять вложения

Перейти:  
Для Мосгорсуда, Роскомнадзора и рекламодателей: mosgorsud-torrent[собачка]yandex.ru
 Вход
ppkBB3cker v.2 © 2008-2014 @ PPK
[ Time : 0.061s | 19 Queries | GZIP : Off ]

cron