img image001 image001 image001 image001 image001 image001 image001 image001 image001 image001 image001 image001 image001 image001 image001

Planets Sun Sun Sun
Статистика раздачи
Автор: Nickolas3434 | Размер: 7.91 ГБ | Добавлен: 12 янв 2018
Раздают: 82    Качают: 2
Скачать торрент
Скачать торрент
Описание торрента

СообщениеДобавлено: 12 янв 2018 

Шнайдер против Бакса / Schneider vs. Bax
Страна: Нидерланды
Производство: Czar, Graniet Film BV, Mollywood, Verenigde Arbeiders Radio Amateurs (VARA)
Год выпуска: 2015
Жанр: триллер, комедия
Продолжительность: 01:36:24
Режиссер: Алекс ван Вармердам
Автор сценария: Алекс ван Вармердам
В ролях: Том Де Виспеларе, Алекс ван Вармердам, Мария Краакман, Гене Бервутс, Аннет Мальэрб, Пьер Бокма, Анри Гарсен, Лоэс Хаверкорт
Описание: Шнайдер — наемный убийца-профессионал. Даже в день своего рождения он обязан подчиниться заказчику, некоему Мертенсу, и ликвидировать Рамона Бакса, писателя, живущего в домишке на берегу озера, окруженного болотами. Киллеру приходится спешить — ведь дома его ждёт праздничный обед в кругу семьи. Однако в этот день всё идёт наперекосяк. Непредвиденные обстоятельства то и дело возникают на пути Шнайдера, отодвигая исход операции. Он нервничает и не догадывается, что его жертва на самом деле тоже профессиональный гангстер, у которого он, Шнайдер, на мушке…

Перевод: Профессиональный (полное дублирование) | iTunes
Субтитры: английские (forced)

Качество: BDRip 1080p
Формат: МКV
Видео кодек: AVC
Аудио кодек: АС3 | DTS
Видео: 1920x808 (2.40:1), 24.000 fps, MPEG-4 AVC ~9 619 kbps avg
Аудио №1: 48.0 kHz, AC3 Dolby Digital, 3/2 (L,C,R,l,r) + LFE ch, ~384 kbps | RUS / iTunes
Аудио №2: 48.0 kHz, Digital Theater Systems, 3/2 (L,C,R,l,r) + LFE ch, ~1509 kbps | DUT
Формат субтитров: UTF-8 Plain Text
Дата премьеры (мир): 28 мая 2015
Дата премьеры (РФ): 12 ноября 2015, «Русский Репортаж»
General
Уникальный идентификатор : 172212404018853786476762042034557940530 (0x818EE70ECB28F5C389CE2188EFEDF332)
Полное имя : Shnaider_Protiv_ Baksa.2015.BDRip 1080p.mkv
Формат : Matroska
Версия формата : Version 2
Размер файла : 7,91 Гбайт
Продолжительность : 1 ч. 36 м.
Общий поток : 11,7 Мбит/сек
Название фильма : Schneider vs. Bax (2016) BDRip 1080p
Дата кодирования : UTC 2017-03-11 12:15:17
Программа кодирования : mkvmerge v5.8.0 ('No Sleep / Pillow') built on Sep 2 2012 15:37:04
Библиотека кодирования : libebml v1.2.3 + libmatroska v1.3.0
Видео
Идентификатор : 1
Формат : AVC
Формат/Информация : Advanced Video Codec
Профиль формата : [email protected]
Параметр CABAC формата : Да
Параметр ReFrames формата : 5 кадров
Идентификатор кодека : V_MPEG4/ISO/AVC
Продолжительность : 1 ч. 36 м.
Битрейт : 9619 Кбит/сек
Ширина : 1920 пикселей
Высота : 808 пикселей
Соотношение сторон : 2,40:1
Режим частоты кадров : Постоянный
Частота кадров : 24,000 кадра/сек
Цветовое пространство : YUV
Субдискретизация насыщенности : 4:2:0
Битовая глубина : 8 бит
Тип развёртки : Прогрессивная
Бит/(Пиксели*Кадры) : 0.258
Размер потока : 6,48 Гбайт (82%)
Заголовок : Schneider vs. Bax
Язык : English
Default : Да
Forced : Нет
Аудио #1
Идентификатор : 2
Формат : AC-3
Формат/Информация : Audio Coding 3
Расширение режима : CM (complete main)
Параметр Endianness формата : Big
Идентификатор кодека : A_AC3
Продолжительность : 1 ч. 36 м.
Вид битрейта : Постоянный
Битрейт : 384 Кбит/сек
Каналы : 6 каналов
Расположение каналов : Front: L C R, Side: L R, LFE
Частота : 48,0 КГц
Битовая глубина : 16 бит
Метод сжатия : С потерями
Размер потока : 265 Мбайт (3%)
Заголовок : Dub (iTunes)
Язык : Russian
Default : Да
Forced : Нет
Аудио #2
Идентификатор : 3
Формат : DTS
Формат/Информация : Digital Theater Systems
Режим : 16
Параметр Endianness формата : Big
Идентификатор кодека : A_DTS
Продолжительность : 1 ч. 36 м.
Вид битрейта : Постоянный
Битрейт : 1509 Кбит/сек
Каналы : 6 каналов
Расположение каналов : Front: L C R, Side: L R, LFE
Частота : 48,0 КГц
Битовая глубина : 24 бит
Метод сжатия : С потерями
Задержка видео : 5 мс.
Размер потока : 1,02 Гбайт (13%)
Заголовок : Original
Язык : Dutch
Default : Нет
Forced : Нет
Текст
Идентификатор : 4
Формат : UTF-8
Идентификатор кодека : S_TEXT/UTF8
Идентификатор кодека/Информация : UTF-8 Plain Text
Заголовок : forced
Язык : English
Default : Нет
Forced : Нет
Меню
00:00:00.000 : en:00:00:00.000
00:07:25.208 : en:00:07:35.208
00:18:53.208 : en:00:19:03.208
00:27:20.000 : en:00:27:30.000
00:34:14.417 : en:00:34:24.417
00:42:04.208 : en:00:42:14.208
00:49:50.625 : en:00:50:00.625
00:55:38.208 : en:00:55:48.208
01:05:24.417 : en:01:05:34.417
01:12:09.417 : en:01:12:19.417
01:22:18.625 : en:01:22:28.625
01:33:55.417 : en:01:34:05.417



   Похожие торренты   Торрент   Размер 
В этой теме нет новых непрочитанных сообщений. Шнайдер против Бакса / Schneider vs. Bax (2015) WEB-DL 1080p | iTunes

862 | 90

3.18 ГБ

В этой теме нет новых непрочитанных сообщений. Шнайдер против Бакса / Schneider vs. Bax (2015) WEB-DLRip-AVC | iTunes

412 | 26

2.17 ГБ

В этой теме нет новых непрочитанных сообщений. Шнайдер против Бакса / Schneider vs. Bax (2015) WEB-DLRip | iTunes

251 | 22

699.95 МБ

В этой теме нет новых непрочитанных сообщений. Шнайдер против Бакса / Schneider vs. Bax (2015) WEB-DLRip | iTunes

505 | 68

1.37 ГБ

В этой теме нет новых непрочитанных сообщений. Шнайдер против Бакса / Schneider vs. Bax (2015) WEB-DL 720p | iTunes

546 | 42

2.88 ГБ

В этой теме нет новых непрочитанных сообщений. Шнайдер против Бакса / Schneider vs. Bax (2015) WEB-DL 1080p | Чистый звук

1797 | 42

3.37 ГБ

В этой теме нет новых непрочитанных сообщений. Шнайдер против Бакса / Schneider vs. Bax (2015) HDRip от Koenig | D

119 | 6

1.45 ГБ




Вы не можете начинать темы
Вы не можете отвечать на сообщения
Вы не можете редактировать свои сообщения
Вы не можете удалять свои сообщения
Вы не можете добавлять вложения

Перейти:  
Для Мосгорсуда, Роскомнадзора и рекламодателей: mosgorsud-torrent[собачка]yandex.ru
 Вход
ppkBB3cker v.2 © 2008-2014 @ PPK
[ Time : 0.063s | 18 Queries | GZIP : Off ]

cron