img image001 image001 image001 image001 image001 image001 image001 image001 image001 image001 image001 image001 image001 image001 image001

Planets Sun Sun Sun
Статистика раздачи
Автор: Nickolas3434 | Размер: 3.29 ГБ | Добавлен: 12 янв 2018
Раздают: 74    Качают: 16
Скачать торрент
Скачать торрент
Описание торрента

СообщениеДобавлено: 12 янв 2018 

Информация о фильме
Наименование: Очень тёмные времена
Оригинальное наименование: Super Dark Times
Произведено: США
Категория: триллер, драма
Режиссер постановщик: Кевин Филлипс
В главных ролях: Оуэн Кэмпбелл, Чарли Тахэн, Лиззи Каппуччино, Сойер Барт, Эми Харгривз, Адеа Леннокс, Джастин Роуз
О фильме: Всю свою жизнь подростки Зак и Джош были лучшими друзьями. Дружили бы и дальше, если бы не ужасный несчастный случай, который они решили скрыть.

Файл
Качество: HDRip 720p
Видео данные: MKV, 1280x536 (2:40:1), 23.976 fps, 4000 Кбит/с
Аудио данные: AC3, 2 ch, 640 Кбит/с
Перевод: Любительский многоголосый (GreenРай Studio)
Продолжительность: 01:43:05
Над релизом работали:
Состав дикторов: Анастасия Гайдаржи, Анна Кириленко и Ильдор Ахмеджанов
Руководитель проекта и координатор: Евгений Овчаренко
Организатор и координатор: Никита Марков
Пиар менеджер студии: Игорь Обухов
Техническая поддержка: Александр Методий
General
Unique ID : 238520148581098483464378620260540123202 (0xB3714F452B9037E6B614F8E08D628842)
Complete name : D:Супер дарк таймSuper.Dark.Times.2016.P.BDRip.720p.mkv
Format : Matroska
Format version : Version 4 / Version 2
File size : 3.29 GiB
Duration : 1 h 43 min
Overall bit rate mode : Constant
Overall bit rate : 4 558 kb/s
Encoded date : UTC 2018-01-03 11:57:22
Writing application : mkvmerge v8.3.0 ('Over the Horizon') 64bit
Writing library : libebml v1.3.1 + libmatroska v1.4.2
Video
ID : 1
Format : AVC
Format/Info : Advanced Video Codec
Format profile : [email protected]
Format settings, CABAC : Yes
Format settings, ReFrames : 3 frames
Codec ID : V_MPEG4/ISO/AVC
Duration : 1 h 43 min
Bit rate mode : Constant
Bit rate : 4 000 kb/s
Width : 1 280 pixels
Height : 536 pixels
Display aspect ratio : 2.40:1
Frame rate mode : Constant
Frame rate : 23.976 (23976/1000) FPS
Standard : NTSC
Color space : YUV
Chroma subsampling : 4:2:0
Bit depth : 8 bits
Scan type : Progressive
Bits/(Pixel*Frame) : 0.243
Stream size : 2.83 GiB (86%)
Language : English
Default : Yes
Forced : No
Color range : Limited
Audio
ID : 2
Format : AC-3
Format/Info : Audio Coding 3
Mode extension : CM (complete main)
Format settings, Endianness : Big
Codec ID : A_AC3
Duration : 1 h 43 min
Bit rate mode : Constant
Bit rate : 640 kb/s
Channel(s) : 2 channels
Channel positions : Front: L R
Sampling rate : 48.0 kHz
Frame rate : 31.250 FPS (1536 spf)
Compression mode : Lossy
Stream size : 473 MiB (14%)
Default : Yes
Forced : No

ВНИМАНИЕ! Присутствует реклама!

Релиз от:



   Похожие торренты   Торрент   Размер 
В этой теме нет новых непрочитанных сообщений. Очень тёмные времена / Super Dark Times (2017) HDRip | L

203 | 8

1.36 ГБ

В этой теме нет новых непрочитанных сообщений. Очень тёмные времена / Super Dark Times (2017) HDRip | L1

67 | 4

2.04 ГБ

В этой теме нет новых непрочитанных сообщений. Крутые времена / Суровые времена / Тяжелые времена / Harsh Times (2005) HDRip от Scarabey | Р

33 | 11

1.45 ГБ

В этой теме нет новых непрочитанных сообщений. Крутые времена / Суровые времена / Тяжелые времена / Harsh Times (2005) HDRip от Scarabey | Р

19 | 4

744.08 МБ

В этой теме нет новых непрочитанных сообщений. Темные времена / Dark Age (1987) DVDRip от torrentfilm | A

8 | 0

1.46 ГБ

В этой теме нет новых непрочитанных сообщений. Век невежества / Тёмные времена / Dark Age (1987) BDRip 1080p | A

1 | 1

7.54 ГБ

В этой теме нет новых непрочитанных сообщений. 30 дней ночи: Темные времена / 30 дней ночи: Темные дни / 30 Days of Night: Dark Days (2010) DVD5 | сжатый

5 | 3

4.23 ГБ




Вы не можете начинать темы
Вы не можете отвечать на сообщения
Вы не можете редактировать свои сообщения
Вы не можете удалять свои сообщения
Вы не можете добавлять вложения

Перейти:  
Для Мосгорсуда, Роскомнадзора и рекламодателей: mosgorsud-torrent[собачка]yandex.ru
 Вход
ppkBB3cker v.2 © 2008-2014 @ PPK
[ Time : 0.054s | 18 Queries | GZIP : Off ]

cron