img image001 image001 image001 image001 image001 image001 image001 image001 image001 image001 image001 image001 image001 image001 image001

Planets Sun Sun Sun
Статистика раздачи
Автор: Nickolas3434 | Размер: 2.14 ГБ | Добавлен: 12 янв 2018
Раздают: 28    Качают: 0
Скачать торрент
Скачать торрент
Описание торрента

СообщениеДобавлено: 12 янв 2018 

Информация о фильме
Название: Плач горы
Оригинальное название: Mountain Cry
Год выхода: 2015
Жанр: драма, мелодрама, криминал
Режиссер: Ларри Ян
В ролях: Лан Юэтин, Цзы-И Ван, Айлэй Юй, Чэн Тай-Шэнь, Го Цзинь, Сюй Цайгэнь
О фильме:
В маленькую горную деревню приходит молодая семья: немая женщина с двумя детьми и её муж с криминальным прошлым. Муж вскоре погибает от несчастного случая и в деревне разворачивается сложная история отношений между немой женщиной, косвенным виновником несчастного случая, и жителями деревни. Раскрывается тёмное и сложное прошлое некоторых участников этой истории.

Страна: Китай
Продолжительность: 01:47:32
Перевод: Любительский, двухголосый, закадровый [Студия "Колобок"], (Перевод: Андрей Березовский, закадровый текст читали: DeadSno и Den904)
Файл
Кодек: V_MPEG4/ISO/AVC
Качество: WEBRip 1080p
Видео: 1920x816, 25.000 FPS, 2600 kb/s
Звук: AC-3, 48.0 kHz, 2ch, 192 kb/s
Субтитры: китайские, английские (хардсаб)
General
Unique ID : 208152639303735775988680211780516205451 (0x9C98BD7771D1954CAAE2155F4104538B)
Complete name : Плач горы [Студия Колобок].mkv
Format : Matroska
Format version : Version 4 / Version 2
File size : 2.14 GiB
Duration : 1 h 47 min
Overall bit rate : 2 849 kb/s
Encoded date : UTC 2017-12-24 11:03:38
Writing application : mkvmerge v6.2.0 ('Promised Land') built on Apr 28 2013 12:22:01
Writing library : libebml v1.3.0 + libmatroska v1.4.0
Video
ID : 1
Format : AVC
Format/Info : Advanced Video Codec
Format profile : [email protected]
Format settings, CABAC : Yes
Format settings, RefFrames : 4 frames
Codec ID : V_MPEG4/ISO/AVC
Duration : 1 h 47 min
Bit rate : 2 600 kb/s
Width : 1 920 pixels
Height : 816 pixels
Display aspect ratio : 2.35:1
Frame rate mode : Constant
Frame rate : 25.000 FPS
Color space : YUV
Chroma subsampling : 4:2:0
Bit depth : 8 bits
Scan type : Progressive
Bits/(Pixel*Frame) : 0.066
Stream size : 1.95 GiB (91%)
Default : Yes
Forced : No
Audio
ID : 2
Format : AC-3
Format/Info : Audio Coding 3
Format settings, Endianness : Big
Codec ID : A_AC3
Duration : 1 h 47 min
Bit rate mode : Constant
Bit rate : 192 kb/s
Channel(s) : 2 channels
Channel positions : Front: L R
Sampling rate : 48.0 kHz
Frame rate : 31.250 FPS (1536 SPF)
Bit depth : 16 bits
Compression mode : Lossy
Stream size : 148 MiB (7%)
Service kind : Complete Main
Default : Yes
Forced : No

Релиз от:



   Похожие торренты   Торрент   Размер 
В этой теме нет новых непрочитанных сообщений. Между нами горы / The Mountain Between Us (2017) BDRip 1080p | L

4 | 0

6.82 ГБ

В этой теме нет новых непрочитанных сообщений. Другая сторона Горы / The Other Side of the Mountain (1975) WEB-DL 1080p | P

14 | 3

10.05 ГБ

В этой теме нет новых непрочитанных сообщений. Захват горы тигра / The Taking of Tiger Mountain (2014) BDRip 1080p | L1

86 | 12

18.96 ГБ

В этой теме нет новых непрочитанных сообщений. Между нами горы / The Mountain Between Us (2017) BDRip 1080p от qqss44 & MegaPeer | iTunes

2445 | 162

6.54 ГБ

В этой теме нет новых непрочитанных сообщений. Манджхи: Человек горы / Manjhi: the Mountain Man (2015) DVDRip | L

389 | 26

2.06 ГБ

В этой теме нет новых непрочитанных сообщений. Между нами горы / The Mountain Between Us (2017) BDRip-HEVC 1080p от HEVC CLUB | iTunes

348 | 21

1.91 ГБ

В этой теме нет новых непрочитанных сообщений. Крик с горы / Cry from the Mountain (1985) DVDRip

3 | 1

699.32 МБ




Вы не можете начинать темы
Вы не можете отвечать на сообщения
Вы не можете редактировать свои сообщения
Вы не можете удалять свои сообщения
Вы не можете добавлять вложения

Перейти:  
Для Мосгорсуда, Роскомнадзора и рекламодателей: mosgorsud-torrent[собачка]yandex.ru
 Вход
ppkBB3cker v.2 © 2008-2014 @ PPK
[ Time : 0.067s | 18 Queries | GZIP : Off ]

cron