img image001 image001 image001 image001 image001 image001 image001 image001 image001 image001 image001 image001 image001 image001 image001

Planets Sun Sun Sun
Статистика раздачи
Автор: Nickolas3434 | Размер: 7.76 ГБ | Добавлен: 12 янв 2018
Раздают: 255    Качают: 58
Скачать торрент
Скачать торрент
Описание торрента

СообщениеДобавлено: 12 янв 2018 

Информация о фильме
Название: Бегущий по лезвию 2049
Оригинальное название: Blade Runner 2049
Год выхода: 2017
Жанр: Фантастика, триллер, драма, детектив
Режиссер: Дэни Вильнёв
В ролях: Райан Гослинг, Харрисон Форд, Ана де Армас, Джаред Лето, Сильвия Хукс, Дэйв Батиста, Робин Райт, Маккензи Дэвис, Карла Юри, Ленни Джеймс
О фильме:
В недалеком будущем мир населен людьми и репликантами, созданными выполнять самую тяжелую работу. Работа офицера полиции Кей — держать репликантов под контролем в условиях нарастающего напряжения… Пока он случайно не становится обладателем секретной информации, которая ставит под угрозу существование всего человечества. Желая найти ключ к разгадке, Кей решает разыскать Рика Декарда, бывшего офицера специального подразделения полиции Лос-Анджелеса, который бесследно исчез много лет назад...

Страна: США, Великобритания, Канада, Венгрия
Студия: Sony, Columbia Pictures, Warner Bros, Alcon Entertainment
Продолжительность: 02:43:47
Перевод: Дублированный (Лицензия), любительский (одноголосый, закадровый) Е.Солодухин - Solod
Файл
Качество: BDRip 720p
Видео: AVC, 1280x534 (2.40:1), 23.976 fps, 5 051 Kbps (0.308 bit/pixel)
Звук:
Аудио #1: AC-3, 48.0 KHz, 6 ch, 640 Kbps, CBR (Russian) - дублированный
Аудио #2: AC-3, 48.0 KHz, 6 ch, 448 Kbps, CBR (Russian) - одноголосый Е.Солодухин
Аудио #3: AC-3, 48.0 KHz, 6 ch, 640 Kbps, CBR (English) - оригинальная звуковая дорожка
Субтитры: Русские, английские
За предоставленные хардсабы огромное спасибо qqss44
Полное имя : D:ФИЛЬМЫБегущий по лезвию 2049. (Р.Гослинг, Х.Форд).k.e.n & MegaPeer (1).mkv
Формат : Matroska
Версия формата : Version 2
Размер файла : 7,76 Гбайт
Продолжительность : 2 ч. 43 м.
Общий поток : 6780 Кбит/сек
Название фильма : Blade Runner 2049 (2017)
Дата кодирования : UTC 2018-01-08 10:35:50
Программа кодирования : mkvmerge v5.3.0 ('I could have danced') built on Feb 9 2012 10:38:07
Библиотека кодирования : libebml v1.2.3 + libmatroska v1.3.0
Attachments : poster (4).jpg
Видео
Идентификатор : 1
Формат : AVC
Формат/Информация : Advanced Video Codec
Профиль формата : [email protected]
Параметр CABAC формата : Да
Параметр ReFrames формата : 12 кадров
Идентификатор кодека : V_MPEG4/ISO/AVC
Продолжительность : 2 ч. 43 м.
Битрейт : 5051 Кбит/сек
Ширина : 1280 пикселей
Высота : 534 пикселя
Соотношение сторон : 2,40:1
Режим частоты кадров : Постоянный
Частота кадров : 23,976 (24000/1001) кадра/сек
Цветовое пространство : YUV
Субдискретизация насыщенности : 4:2:0
Битовая глубина : 8 бит
Тип развёртки : Прогрессивная
Бит/(Пиксели*Кадры) : 0.308
Размер потока : 5,63 Гбайт (73%)
Библиотека кодирования : x264 core 146 r2538 121396c
Настройки программы : cabac=1 / ref=12 / deblock=1:-3:-3 / analyse=0x3:0x133 / me=umh / subme=11 / psy=1 / psy_rd=1.02:0.10 / mixed_ref=1 / me_range=32 / chroma_me=1 / trellis=2 / 8x8dct=1 / cqm=0 / deadzone=21,11 / fast_pskip=0 / chroma_qp_offset=-3 / threads=12 / lookahead_threads=3 / sliced_threads=0 / nr=0 / decimate=0 / interlaced=0 / bluray_compat=0 / constrained_intra=0 / bframes=11 / b_pyramid=2 / b_adapt=2 / b_bias=0 / direct=3 / weightb=1 / open_gop=0 / weightp=2 / keyint=240 / keyint_min=23 / scenecut=40 / intra_refresh=0 / rc=2pass / mbtree=0 / bitrate=5051 / ratetol=1.0 / qcomp=0.60 / qpmin=0 / qpmax=69 / qpstep=4 / cplxblur=20.0 / qblur=0.5 / ip_ratio=1.40 / pb_ratio=1.30 / aq=3:0.90
Язык : English
Default : Да
Forced : Нет
Аудио #1
Идентификатор : 2
Формат : AC-3
Формат/Информация : Audio Coding 3
Расширение режима : CM (complete main)
Параметр Endianness формата : Big
Идентификатор кодека : A_AC3
Продолжительность : 2 ч. 43 м.
Вид битрейта : Постоянный
Битрейт : 640 Кбит/сек
Каналы : 6 каналов
Расположение каналов : Front: L C R, Side: L R, LFE
Частота : 48,0 КГц
Частота кадров : 31,250 кадров/сек (1536 spf)
Битовая глубина : 16 бит
Метод сжатия : С потерями
Размер потока : 750 Мбайт (9%)
Заголовок : Дублированный (Лицензия)
Язык : Russian
Default : Да
Forced : Нет
Аудио #2
Идентификатор : 3
Формат : AC-3
Формат/Информация : Audio Coding 3
Расширение режима : CM (complete main)
Параметр Endianness формата : Big
Идентификатор кодека : A_AC3
Продолжительность : 2 ч. 43 м.
Вид битрейта : Постоянный
Битрейт : 448 Кбит/сек
Каналы : 6 каналов
Расположение каналов : Front: L C R, Side: L R, LFE
Частота : 48,0 КГц
Частота кадров : 31,250 кадров/сек (1536 spf)
Битовая глубина : 16 бит
Метод сжатия : С потерями
Размер потока : 525 Мбайт (7%)
Заголовок : Одноголосый Е.Солодухин
Язык : Russian
Default : Нет
Forced : Нет
Аудио #3
Идентификатор : 4
Формат : AC-3
Формат/Информация : Audio Coding 3
Расширение режима : CM (complete main)
Параметр Endianness формата : Big
Идентификатор кодека : A_AC3
Продолжительность : 2 ч. 43 м.
Вид битрейта : Постоянный
Битрейт : 640 Кбит/сек
Каналы : 6 каналов
Расположение каналов : Front: L C R, Side: L R, LFE
Частота : 48,0 КГц
Частота кадров : 31,250 кадров/сек (1536 spf)
Битовая глубина : 16 бит
Метод сжатия : С потерями
Размер потока : 750 Мбайт (9%)
Заголовок : Original
Язык : English
Default : Нет
Forced : Нет
Текст #1
Идентификатор : 5
Формат : UTF-8
Идентификатор кодека : S_TEXT/UTF8
Идентификатор кодека/Информация : UTF-8 Plain Text
Заголовок : full
Язык : Russian
Default : Нет
Forced : Нет
Текст #2
Идентификатор : 6
Формат : UTF-8
Идентификатор кодека : S_TEXT/UTF8
Идентификатор кодека/Информация : UTF-8 Plain Text
Заголовок : full Переведено студией Focs
Язык : Russian
Default : Нет
Forced : Нет
Текст #3
Идентификатор : 7
Формат : UTF-8
Идентификатор кодека : S_TEXT/UTF8
Идентификатор кодека/Информация : UTF-8 Plain Text
Заголовок : full
Язык : English
Default : Нет
Forced : Нет
Текст #4
Идентификатор : 8
Формат : UTF-8
Идентификатор кодека : S_TEXT/UTF8
Идентификатор кодека/Информация : UTF-8 Plain Text
Заголовок : SDH
Язык : English
Default : Нет
Forced : Нет
Меню
00:00:00.000 : :00:00:00.000
00:12:36.172 : :00:12:36.172
00:23:29.283 : :00:23:29.283
00:37:00.885 : :00:37:00.885
00:42:50.318 : :00:42:50.318
00:49:24.503 : :00:49:24.503
00:58:35.554 : :00:58:35.554
01:04:10.680 : :01:04:10.680
01:15:47.293 : :01:15:47.293
01:25:12.482 : :01:25:12.482
01:36:15.061 : :01:36:15.061
01:50:55.107 : :01:50:55.107
02:01:36.873 : :02:01:36.873
02:08:40.379 : :02:08:40.379
02:16:42.486 : :02:16:42.486
02:27:46.733 : :02:27:46.733

Релиз от: &



   Похожие торренты   Торрент   Размер 
В этой теме нет новых непрочитанных сообщений. Бегущий по лезвию 2049 / Blade Runner 2049 (2017) BDRip 720p от k.e.n & MegaPeer | D | Лицензия

251 | 18

7.76 ГБ

В этой теме нет новых непрочитанных сообщений. Бегущий по лезвию 2049 / Blade Runner 2049 (2017) BDRip от MegaPeer | Лицензия

1305 | 118

2.91 ГБ

В этой теме нет новых непрочитанных сообщений. Бегущий по лезвию 2049 / Blade Runner 2049 (2017) BDRip-AVC от qqss44 & MegaPeer | Лицензия

627 | 39

2.17 ГБ

В этой теме нет новых непрочитанных сообщений. Бегущий по лезвию 2049 / Blade Runner 2049 (2017) BDRip 1080p от qqss44 & MegaPeer | Лицензия

3041 | 259

9.89 ГБ

В этой теме нет новых непрочитанных сообщений. Бегущий по лезвию 2049 / Blade Runner 2049 (2017) WEB-DLRip от MegaPeer | iTunes

12947 | 797

1.46 ГБ

В этой теме нет новых непрочитанных сообщений. Бегущий по лезвию 2049 / Blade Runner 2049 (2017) WEB-DLRip от MegaPeer | iTunes

1551 | 96

2.18 ГБ

В этой теме нет новых непрочитанных сообщений. Бегущий по лезвию 2049 / Blade Runner 2049 (2017) BDRip 720p от ExKinoRay | Лицензия

591 | 15

8.72 ГБ




Вы не можете начинать темы
Вы не можете отвечать на сообщения
Вы не можете редактировать свои сообщения
Вы не можете удалять свои сообщения
Вы не можете добавлять вложения

Перейти:  
Для Мосгорсуда, Роскомнадзора и рекламодателей: mosgorsud-torrent[собачка]yandex.ru
 Вход
ppkBB3cker v.2 © 2008-2014 @ PPK
[ Time : 0.056s | 18 Queries | GZIP : Off ]

cron