img image001 image001 image001 image001 image001 image001 image001 image001 image001 image001 image001 image001 image001 image001 image001

Planets Sun Sun Sun
Статистика раздачи
Автор: Nickolas3434 | Размер: 4.59 ГБ | Добавлен: 12 янв 2018
Раздают: 13    Качают: 2
Скачать торрент
Скачать торрент
Описание торрента

СообщениеДобавлено: 12 янв 2018 

Жизнь богачей / La vie de château

Выпущено: Франция, Ancinex, Cobela Films, Films de la Guéville
Жанр: Комедия, мелодрама, военный
Год выпуска: 1966
Продолжительность: 01:25:06
Перевод: Профессиональный многоголосый
Режиссер: Жан-Поль Раппно
В ролях: Катрин Денёв, Филипп Нуаре, Пьер Брассёр, Анри Гарсен, Кристиан Барбье, Карлос Томпсон, Мари Марке, Валери Камилль, Марк Дюдикур
О Фильме: Конец немецкой оккупации. В маленьком французском городке, в особняке, который французы любовно именуют Шато, (замок) скучает очаровательная француженка. Гремят взрывы наступающей армии союзников, а в доме свита устраивает для своей хозяйки праздник. В разгар веселья на территорию Шато сваливается парашютист-освободитель, который тоже не прочь присоединится к гуляющим и прекрасной хозяйке дома…Французы есть французы. Что бы ни происходило в мире, но любовь и красивые женщины важнее всего на свете. Легкая и искристая атмосфера французского кино, обворожительная Катрин Денев и лиричные композиции Мишеля Леграна делают картину изящной, а национальная самоирония в сочетании с режиссерским остроумием оставляют приятные воспоминания.

Кодек: х264
Качество: BDRip 720p
Видео: MPEG-4 AVC, 1200x720, 24.000 fps, 6750 Кбит/с
Аудио 1: AC3, 2 ch, 192 Кбит/с (Профессиональный Многоголосый)
Аудио 2: AC3, 1 ch, 192 Кбит/с (Оригинал)
Субтитры: Английские
Главы: Есть

x264 [info]: frame I:797 Avg QP:15.99 size:171757
x264 [info]: frame P:30860 Avg QP:19.79 size: 60664
x264 [info]: frame B:100848 Avg QP:21.38 size: 26343
Общее
Уникальный идентификатор : 189779789804771317963870767749312983566 (0x8EC6420C72DF9340BF5CB2A4A7F6B20E)
Полное имя : E:Мои рипыЖизнь богачей 1966_BDRip 720p_KORSAR.mkv
Формат : Matroska
Версия формата : Version 2
Размер файла : 4,59 Гбайт
Продолжительность : 1 ч. 32 м.
Общий поток : 7147 Кбит/сек
Дата кодирования : UTC 2018-01-08 17:45:31
Программа кодирования : mkvmerge v5.8.0 ('No Sleep / Pillow') built on Sep 2 2012 15:37:04
Библиотека кодирования : libebml v1.2.3 + libmatroska v1.3.0
Видео
Идентификатор : 1
Формат : AVC
Формат/Информация : Advanced Video Codec
Профиль формата : [email protected]
Настройки формата : CABAC / 9 Ref Frames
Параметр CABAC формата : Да
Параметр RefFrames формата : 9 кадров
Идентификатор кодека : V_MPEG4/ISO/AVC
Продолжительность : 1 ч. 32 м.
Битрейт : 6750 Кбит/сек
Ширина : 1200 пикселей
Высота : 720 пикселей
Соотношение сторон : 5:3
Режим частоты кадров : Постоянный
Частота кадров : 24,000 кадра/сек
Цветовое пространство : YUV
Субдискретизация насыщенности : 4:2:0
Битовая глубина : 8 бит
Тип развёртки : Прогрессивная
Бит/(Пиксели*Кадры) : 0.326
Размер потока : 4,26 Гбайт (93%)
Библиотека кодирования : x264 core 152 r2851kMod ba24899
Настройки программы : cabac=1 / ref=9 / deblock=1:-2:-1 / analyse=0x3:0x113 / me=umh / subme=11 / psy=1 / fade_compensate=0.00 / psy_rd=1.05:0.08 / mixed_ref=1 / me_range=48 / chroma_me=1 / trellis=2 / 8x8dct=1 / cqm=0 / deadzone=21,11 / fast_pskip=0 / chroma_qp_offset=-3 / threads=12 / lookahead_threads=3 / sliced_threads=0 / nr=0 / decimate=0 / interlaced=0 / bluray_compat=0 / constrained_intra=0 / bframes=14 / b_pyramid=2 / b_adapt=2 / b_bias=0 / direct=3 / weightb=1 / open_gop=0 / weightp=2 / keyint=240 / keyint_min=24 / scenecut=40 / intra_refresh=0 / rc_lookahead=40 / rc=2pass / mbtree=0 / bitrate=6750 / ratetol=1.0 / qcomp=0.60 / qpmin=0 / qpmax=39 / qpstep=4 / cplxblur=20.0 / qblur=0.5 / vbv_maxrate=50000 / vbv_bufsize=62500 / nal_hrd=none / filler=0 / ip_ratio=1.40 / pb_ratio=1.30 / aq=2:0.90
Язык : English
Default : Да
Forced : Нет
Цветовой диапазон : Limited
Основные цвета : BT.709
Характеристики трансфера : BT.709
Коэффициенты матрицы : BT.709
Аудио #1
Идентификатор : 2
Формат : AC-3
Формат/Информация : Audio Coding 3
Параметр Endianness формата : Big
Идентификатор кодека : A_AC3
Продолжительность : 1 ч. 32 м.
Вид битрейта : Постоянный
Битрейт : 192 Кбит/сек
Каналы : 2 канала
Расположение каналов : Front: L R
Частота : 48,0 КГц
Частота кадров : 31,250 кадров/сек (1536 SPF)
Битовая глубина : 16 бит
Метод сжатия : С потерями
Размер потока : 126 Мбайт (3%)
Заголовок : Профессиональный Многоголосый
Язык : Russian
Default : Да
Forced : Нет
Аудио #2
Идентификатор : 3
Формат : AC-3
Формат/Информация : Audio Coding 3
Параметр Endianness формата : Big
Идентификатор кодека : A_AC3
Продолжительность : 1 ч. 32 м.
Вид битрейта : Постоянный
Битрейт : 192 Кбит/сек
Каналы : 1 канал
Расположение каналов : Front: C
Частота : 48,0 КГц
Частота кадров : 31,250 кадров/сек (1536 SPF)
Битовая глубина : 16 бит
Метод сжатия : С потерями
Размер потока : 126 Мбайт (3%)
Заголовок : Original
Язык : French
Default : Нет
Forced : Нет
Текст
Идентификатор : 4
Формат : UTF-8
Идентификатор кодека : S_TEXT/UTF8
Идентификатор кодека/Информация : UTF-8 Plain Text
Язык : English
Default : Да
Forced : Нет
Меню
00:00:00.000 : en:Chapter 1
00:07:39.083 : en:Chapter 2
00:13:30.166 : en:Chapter 3
00:21:05.916 : en:Chapter 4
00:28:19.958 : en:Chapter 5
00:35:53.583 : en:Chapter 6
00:45:57.792 : en:Chapter 7
00:54:01.583 : en:Chapter 8
01:02:00.542 : en:Chapter 9
01:08:40.500 : en:Chapter 10
01:14:12.707 : en:Chapter 11
01:25:29.792 : en:Chapter 12




   Похожие торренты   Торрент   Размер 
В этой теме нет новых непрочитанных сообщений. Жизнь богачей / La vie de château (1966) BDRip от Koenig | P

20 | 0

1.45 ГБ

В этой теме нет новых непрочитанных сообщений. Жизнь богачей / La Vie de Chateau (1966) DVDRip от Alekxandr48

5 | 2

1.37 ГБ

В этой теме нет новых непрочитанных сообщений. Стигматы / Stigmata (1999) BDRip 720р от KORSAR | D, P, A

11 | 2

5.8 ГБ

В этой теме нет новых непрочитанных сообщений. Вопросы и ответы / Q & A (1990) BDRip 720р от KORSAR | P, P2, А

11 | 4

7.83 ГБ

В этой теме нет новых непрочитанных сообщений. Республика ШКИД (1966) WEB-DLRip 720p от KORSAR

75 | 5

3.68 ГБ

В этой теме нет новых непрочитанных сообщений. Деметрий и гладиаторы / Demetrius and the Gladiators (1954) BDRip 720р от KORSAR | P

0 | 0

8.02 ГБ

В этой теме нет новых непрочитанных сообщений. Майами Блюз / Miami Blues (1990) BDRip 720р от KORSAR | D, P, P2, A

4 | 0

6.21 ГБ




Вы не можете начинать темы
Вы не можете отвечать на сообщения
Вы не можете редактировать свои сообщения
Вы не можете удалять свои сообщения
Вы не можете добавлять вложения

Перейти:  
Для Мосгорсуда, Роскомнадзора и рекламодателей: mosgorsud-torrent[собачка]yandex.ru
 Вход
ppkBB3cker v.2 © 2008-2014 @ PPK
[ Time : 0.068s | 18 Queries | GZIP : Off ]

cron