img image001 image001 image001 image001 image001 image001 image001 image001 image001 image001 image001 image001 image001 image001 image001

Planets Sun Sun Sun
Статистика раздачи
Автор: Nickolas3434 | Размер: 6.79 ГБ | Добавлен: 12 янв 2018
Раздают: 26    Качают: 6
Скачать торрент
Скачать торрент
Описание торрента

СообщениеДобавлено: 12 янв 2018 

Мечтатель / Dreamer: Inspired by a True Story
Страна: США
Производство: DreamWorks SKG, Hyde Park Entertainment, S.K.G. Productions LLC, Tollin/Robbins Productions, Brass Hat Films
Год выпуска: 2005
Жанр: драма, семейный, спорт
Продолжительность: 01:45:09
Режиссер: Джон Гэйтинс
Автор сценария: Джон Гэйтинс
В ролях: Курт Рассел, Дакота Фаннинг, Крис Кристофферсон, Элизабет Шу, Дэвид Морс, Фредди Родригес, Луис Гусман, Одед Фер, Кен Ховард
Описание: Фильм основан на реальных событиях. Отец и дочь — две одинокие души, живущие под одной крышей. Несмотря на глубокую привязанность, на самом деле они очень далеки от взаимопонимания. Но всё меняется, когда маленькая Кейл просит отца вылечить любимую лошадь. Это становится точкой отсчёта в новой истории любви и привязанности, новой жизни новой семьи и настоящей дружбы...

Перевод: Профессиональный (многоголосый, закадровый) | Paradise Digital
Субтитры: русские, английские

Качество: BDRip 720p
Формат: МКV
Видео кодек: AVC
Аудио кодек: DTS
Видео: 1280x534 (2.40:1), 24.000 fps, MPEG-4 AVC ~6 789 kbps avg
Аудио №1: 48.0 kHz, Digital Theater Systems, 3/2 (L,C,R,l,r) + LFE ch, ~1509 kbps | RUS
Аудио №2: 48.0 kHz, Digital Theater Systems, 3/2 (L,C,R,l,r) + LFE ch, ~768 kbps | ENG
Формат субтитров: UTF-8 Plain Text
Бюджет: $32 000 000
Дата премьеры (мир): 10 сентября 2005
General
Уникальный идентификатор : 173114070377447520071347587189983568860 (0x823C8EA43B2CFB83BC214964142E63DC)
Полное имя : Dreamer.Inspired.by.a.True.Story.2005.BDRip.720p.mkv
Формат : Matroska
Версия формата : Version 4 / Version 2
Размер файла : 6,79 Гбайт
Продолжительность : 1 ч. 45 м.
Общий поток : 9250 Кбит/сек
Дата кодирования : UTC 2015-03-15 10:04:45
Программа кодирования : mkvmerge v7.7.0 ('Six Voices') 64bit built on Feb 28 2015 23:39:33
Библиотека кодирования : libebml v1.3.1 + libmatroska v1.4.2
Видео
Идентификатор : 1
Формат : AVC
Формат/Информация : Advanced Video Codec
Профиль формата : [email protected]
Параметр CABAC формата : Да
Параметр ReFrames формата : 9 кадров
Идентификатор кодека : V_MPEG4/ISO/AVC
Продолжительность : 1 ч. 45 м.
Битрейт : 6789 Кбит/сек
Ширина : 1280 пикселей
Высота : 534 пикселя
Соотношение сторон : 2,40:1
Режим частоты кадров : Постоянный
Частота кадров : 24,000 кадра/сек
Цветовое пространство : YUV
Субдискретизация насыщенности : 4:2:0
Битовая глубина : 8 бит
Тип развёртки : Прогрессивная
Бит/(Пиксели*Кадры) : 0.414
Размер потока : 4,99 Гбайт (73%)
Библиотека кодирования : x264 core 144 r2525kMod 40bb568
Настройки программы : cabac=1 / ref=9 / deblock=1:-3:-3 / analyse=0x3:0x133 / me=umh / subme=10 / psy=1 / fade_compensate=0.00 / psy_rd=1.05:0.05 / mixed_ref=1 / me_range=24 / chroma_me=1 / trellis=2 / 8x8dct=1 / cqm=0 / deadzone=21,11 / fast_pskip=1 / chroma_qp_offset=-3 / threads=6 / lookahead_threads=1 / sliced_threads=0 / nr=0 / decimate=1 / interlaced=0 / bluray_compat=0 / constrained_intra=0 / fgo=0 / bframes=14 / b_pyramid=2 / b_adapt=2 / b_bias=0 / direct=3 / weightb=1 / open_gop=0 / weightp=2 / keyint=250 / keyint_min=24 / scenecut=40 / intra_refresh=0 / rc_lookahead=60 / rc=crf / mbtree=1 / crf=14.0000 / qcomp=0.60 / qpmin=0 / qpmax=69 / qpstep=4 / ip_ratio=1.40 / aq=1:0.80
Язык : English
Default : Да
Forced : Нет
Основные цвета : BT.709
Характеристики трансфера : BT.709
Коэффициенты матрицы : BT.709
colour_range : Limited
Аудио #1
Идентификатор : 2
Формат : DTS
Формат/Информация : Digital Theater Systems
Режим : 16
Параметр Endianness формата : Big
Идентификатор кодека : A_DTS
Продолжительность : 1 ч. 45 м.
Вид битрейта : Постоянный
Битрейт : 1509 Кбит/сек
Каналы : 6 каналов
Расположение каналов : Front: L C R, Side: L R, LFE
Частота : 48,0 КГц
Битовая глубина : 24 бит
Метод сжатия : С потерями
Размер потока : 1,11 Гбайт (16%)
Язык : Russian
Default : Да
Forced : Нет
Аудио #2
Идентификатор : 3
Формат : DTS
Формат/Информация : Digital Theater Systems
Режим : 16
Параметр Endianness формата : Big
Идентификатор кодека : A_DTS
Продолжительность : 1 ч. 45 м.
Вид битрейта : Постоянный
Битрейт : 768 Кбит/сек
Каналы : 6 каналов
Расположение каналов : Front: L C R, Side: L R, LFE
Частота : 48,0 КГц
Битовая глубина : 24 бит
Метод сжатия : С потерями
Размер потока : 578 Мбайт (8%)
Язык : English
Default : Нет
Forced : Нет
Текст #1
Идентификатор : 4
Формат : UTF-8
Идентификатор кодека : S_TEXT/UTF8
Идентификатор кодека/Информация : UTF-8 Plain Text
Язык : Russian
Default : Да
Forced : Нет
Текст #2
Идентификатор : 5
Формат : UTF-8
Идентификатор кодека : S_TEXT/UTF8
Идентификатор кодека/Информация : UTF-8 Plain Text
Язык : English
Default : Нет
Forced : Нет
Меню
00:00:00.000 : en:00:00:00.000
00:08:05.375 : en:00:08:05.375
00:13:37.083 : en:00:13:37.083
00:26:24.167 : en:00:26:24.167
00:33:10.708 : en:00:33:10.708
00:42:39.042 : en:00:42:39.042
00:45:30.792 : en:00:45:30.792
00:49:57.625 : en:00:49:57.625
00:55:50.667 : en:00:55:50.667
01:02:27.958 : en:01:02:27.958
01:08:28.250 : en:01:08:28.250
01:14:39.333 : en:01:14:39.333
01:23:15.625 : en:01:23:15.625
01:31:05.958 : en:01:31:05.958
01:33:39.708 : en:01:33:39.708
01:38:49.208 : en:01:38:49.208



   Похожие торренты   Торрент   Размер 
В этой теме нет новых непрочитанных сообщений. Мечтатель / Dreamer: Inspired by a True Story (2005) BDRip 720p от k.e.n & MegaPeer | P

0 | 0

4.37 ГБ

В этой теме нет новых непрочитанных сообщений. Мечтатель / Dreamer: Inspired by a True Story (2005) BDRip 720p от Element team

4 | 4

2.19 ГБ

В этой теме нет новых непрочитанных сообщений. Мечтатель / Dreamer: Inspired by a True Story (2005) BDRip-AVC | Р

3 | 0

2.97 ГБ

В этой теме нет новых непрочитанных сообщений. Мечтатель / Dreamer: Inspired by a True Story (2005) BDRip-AVC от k.e.n & MegaPeer | P

11 | 1

1.46 ГБ

В этой теме нет новых непрочитанных сообщений. Мечтатель / Dreamer: Inspired by a True Story (2005) BDRip от HELLYWOOD

2 | 47

2.18 ГБ

В этой теме нет новых непрочитанных сообщений. Мечтатель / Dreamer: Inspired by a True Story (2005) BDRip от HQCLUB

223 | 5

2.18 ГБ

В этой теме нет новых непрочитанных сообщений. Мечтатель / Dreamer: Inspired by a True Story (2005) HDTVRip

6 | 1

747.19 МБ




Вы не можете начинать темы
Вы не можете отвечать на сообщения
Вы не можете редактировать свои сообщения
Вы не можете удалять свои сообщения
Вы не можете добавлять вложения

Перейти:  
Для Мосгорсуда, Роскомнадзора и рекламодателей: mosgorsud-torrent[собачка]yandex.ru
 Вход
ppkBB3cker v.2 © 2008-2014 @ PPK
[ Time : 0.046s | 18 Queries | GZIP : Off ]

cron