img image001 image001 image001 image001 image001 image001 image001 image001 image001 image001 image001 image001 image001 image001 image001

Planets Sun Sun Sun
Статистика раздачи
Автор: Nickolas3434 | Размер: 699.42 МБ | Добавлен: 12 янв 2018
Раздают: 170    Качают: 6
Скачать торрент
Скачать торрент
Описание торрента

СообщениеДобавлено: 12 янв 2018 

Информация о фильме
Название: Пираты Сомали
Оригинальное название: The Pirates of Somalia
Год выхода: 2017
Жанр: драма, биография
Режиссер: Брайан Бакли
В ролях: Аль Пачино, Эван Питерс, Мелани Гриффит, Баркхад Абди, Расселл Познер, Корал Пенья, Киана Мадани, Филип Эттинджер, Эйдан Уайток
О фильме: В 2008 году журналист-новобранец Джей Бахадур формирует полусырой план по внедрению себя в банду пиратов Сомали. В конечном счёте он добивается своего и первым смотрит изнутри на то, кто такие эти люди, как они живут, и что за силы ими управляют...

Страна: Сомали, Кения, Судан, ЮАР, США
Студия: BCDF Pictures, Hungry Man, Kalahari Pictures
Продолжительность: 01:57:41
Перевод: Любительский (многоголосый, закадровый) | Синема УС
Субтитры: Нет
Без Рекламы!
Файл
Кодек: XviD
Качество: WEB-DLRip
Видео: 720x304 (2.37:1), 23.976 fps, XviD build 73 ~696 kbps avg, 0.13 bit/pixel
Звук: 48 kHz, MPEG Layer 3, 2 ch, ~128.00 kbps avg
General
Complete name : The.Pirates.of.Somalia.2017.WEB-DLRip.ot.Portablius.avi
Format : AVI
Format/Info : Audio Video Interleave
File size : 699 MiB
Duration : 1 h 57 min
Overall bit rate : 834 kb/s
Writing application : VirtualDubMod 1.5.10.3 | www.virtualdub-fr.org || (build 2550/release)
Writing library : VirtualDub build 35491/release
Video
ID : 0
Format : MPEG-4 Visual
Format profile : Advanced [email protected]
Format settings, BVOP : 1
Format settings, QPel : No
Format settings, GMC : No warppoints
Format settings, Matrix : Custom
Codec ID : XVID
Codec ID/Hint : XviD
Duration : 1 h 57 min
Bit rate : 697 kb/s
Width : 720 pixels
Height : 304 pixels
Display aspect ratio : 2.35:1
Frame rate : 23.976 (24000/1001) FPS
Original frame rate : 23.976 (23976/1000) FPS
Color space : YUV
Chroma subsampling : 4:2:0
Bit depth : 8 bits
Scan type : Progressive
Compression mode : Lossy
Bits/(Pixel*Frame) : 0.133
Stream size : 584 MiB (84%)
Writing library : XviD 73
Audio
ID : 1
Format : MPEG Audio
Format version : Version 1
Format profile : Layer 3
Codec ID : 55
Codec ID/Hint : MP3
Duration : 1 h 57 min
Bit rate mode : Constant
Bit rate : 128 kb/s
Channel(s) : 2 channels
Sampling rate : 48.0 kHz
Compression mode : Lossy
Stream size : 107 MiB (15%)
Alignment : Aligned on interleaves
Interleave, duration : 42 ms (1.00 video frame)
Interleave, preload duratio : 504 ms
Writing library : LAME3.99r
Encoding settings : -m s -V 4 -q 2 -lowpass 17 -b 128



   Похожие торренты   Торрент   Размер 
В этой теме нет новых непрочитанных сообщений. Пираты Сомали / The Pirates of Somalia (2017) WEB-DLRip | L

777 | 21

2.18 ГБ

В этой теме нет новых непрочитанных сообщений. Пираты Сомали / The Pirates of Somalia (2017) WEB-DLRip-AVC от Kaztorrents | L

442 | 11

1.46 ГБ

В этой теме нет новых непрочитанных сообщений. Пираты Сомали / The Pirates of Somalia (2017) WEB-DL 1080р | L

458 | 29

4.19 ГБ

В этой теме нет новых непрочитанных сообщений. Ледовые пираты / Ледяные пираты / The Ice Pirates (1984) WEB-DLRip | P

144 | 24

1.38 ГБ

В этой теме нет новых непрочитанных сообщений. Пираты Карибского моря: Мертвецы не рассказывают сказки / Pirates of the Caribbean: Dead Men Tell No Tales (2017) WEB-DLRip | L2

1160 | 53

2.02 ГБ

В этой теме нет новых непрочитанных сообщений. Пираты Карибского моря: Мертвецы не рассказывают сказки / Pirates of the Caribbean: Dead Men Tell No Tales (2017) WEB-DLRip-AVC | L2

725 | 42

2.16 ГБ

В этой теме нет новых непрочитанных сообщений. Пираты Карибского моря: Мертвецы не рассказывают сказки / Pirates of the Caribbean: Dead Men Tell No Tales (2017) WEB-DLRip | L2

1863 | 65

1.35 ГБ




Вы не можете начинать темы
Вы не можете отвечать на сообщения
Вы не можете редактировать свои сообщения
Вы не можете удалять свои сообщения
Вы не можете добавлять вложения

Перейти:  
Для Мосгорсуда, Роскомнадзора и рекламодателей: mosgorsud-torrent[собачка]yandex.ru
 Вход
ppkBB3cker v.2 © 2008-2014 @ PPK
[ Time : 0.084s | 21 Queries | GZIP : Off ]

cron