img image001 image001 image001 image001 image001 image001 image001 image001 image001 image001 image001 image001 image001 image001 image001

Planets Sun Sun Sun
Статистика раздачи
Автор: Nickolas3434 | Размер: 7.58 ГБ | Добавлен: 12 янв 2018
Раздают: 52    Качают: 9
Скачать торрент
Скачать торрент
Описание торрента

СообщениеДобавлено: 12 янв 2018 

Информация о фильме
Название: Бегущий по лезвию
Оригинальное название: Blade Runner
Год выхода: 1982
Жанр: фантастика, киберпанк, драма
Режиссер: Ридли Скотт
В ролях: Харрисон Форд, Рутгер Хауэр, Шон Янг, Дэрил Ханна, Брайон Джеймс, Эдвард Джеймс Олмос, Джоанна Кэссиди
О фильме:
Недалекое будущее. Декард - полицейский в отставке, бывший "бегущий по лезвию" - охотник на репликантов - андроидов, созданных корпорацией "Тайрелл". Репликанты были объявлены на Земле вне закона, но группа репликантов серии Nexus-6 завладела шаттлом и, перебив команду и пассажиров, вернулась на Землю из колонии. Декарда вызвали для того, чтобы совершить грязную работу - уничтожить их...

Страна: США, Гонконг
Продолжительность: 01:57:31
Перевод: Профессиональный (полное дублирование) Blu-ray CEE
Файл
Кодек: HEVC x265 10bit
Качество: UHDRip-HEVC 1080p
Видео: 1920x800, 23.976 кадр/сек, 8133 Кбит/сек, (Main [email protected]@High) 10bit, HDR to SDR converted
Звук:
Аудио1: Русская, AC3 640 Кбит/сек, 6 канала(ов),16bit 48,0 КГц
Аудио2: English, AC3 448 Кбит/сек, 6 канала(ов),16bit 48,0 КГц
Субтитры: Русские, English
Навигация по главам: Есть
Исходник: Blade Runner [Final Cut] (1982) 4K UltraHD HDR Disc [EUR]
HDR SDR
General
Unique ID : 243646286488372027385069332102726610317 (0xB74C9161CEAA0B36B97A29C306D0ED8D)
Complete name : F:HEVCBlade Runner [Final Cut] (1982) UHDRip 1080p [HEVC].mkv
Format : Matroska
Format version : Version 4 / Version 2
File size : 7.58 GiB
Duration : 1 h 57 min
Overall bit rate : 9 238 kb/s
Movie name : rip_by_Cthulhu
Encoded date : UTC 2018-01-10 05:09:39
Writing application : mkvmerge v18.0.0 ('Apricity') 64-bit
Writing library : libebml v1.3.5 + libmatroska v1.4.8
Cover : Yes
Attachments : cover.jpg
Video
ID : 1
Format : HEVC
Format/Info : High Efficiency Video Coding
Format profile : Main [email protected]@High
Codec ID : V_MPEGH/ISO/HEVC
Duration : 1 h 57 min
Bit rate : 8 133 kb/s
Width : 1 920 pixels
Height : 800 pixels
Display aspect ratio : 2.40:1
Frame rate mode : Constant
Frame rate : 23.976 (24000/1001) FPS
Color space : YUV
Chroma subsampling : 4:2:0
Bit depth : 10 bits
Bits/(Pixel*Frame) : 0.221
Stream size : 6.68 GiB (88%)
Writing library : x265 2.6+6-2e684b80d90f:[Windows][GCC 7.2.0][64 bit] 10bit
Encoding settings : cpuid=1050111 / frame-threads=4 / numa-pools=4 / wpp / no-pmode / no-pme / no-psnr / no-ssim / log-level=2 / input-csp=1 / input-res=1920x800 / interlace=0 / total-frames=0 / level-idc=51 / high-tier=1 / uhd-bd=0 / ref=5 / no-allow-non-conformance / no-repeat-headers / annexb / no-aud / no-hrd / info / hash=0 / no-temporal-layers / open-gop / min-keyint=23 / keyint=250 / bframes=8 / b-adapt=2 / b-pyramid / bframe-bias=0 / rc-lookahead=40 / lookahead-slices=4 / scenecut=40 / no-intra-refresh / ctu=64 / min-cu-size=8 / no-rect / no-amp / max-tu-size=32 / tu-inter-depth=3 / tu-intra-depth=3 / limit-tu=0 / rdoq-level=2 / dynamic-rd=0.00 / no-ssim-rd / signhide / no-tskip / nr-intra=0 / nr-inter=0 / no-constrained-intra / strong-intra-smoothing / max-merge=3 / limit-refs=0 / limit-modes / me=2 / subme=6 / merange=57 / temporal-mvp / weightp / weightb / no-analyze-src-pics / deblock=-3:-3 / no-sao / no-sao-non-deblock / rd=3 / no-early-skip / rskip / no-fast-intra / no-tskip-fast / no-cu-lossless / no-b-intra / no-splitrd-skip / rdpenalty=0 / psy-rd=2.00 / psy-rdoq=1.00 / no-rd-refine / analysis-reuse-mode=0 / no-lossless / cbqpoffs=0 / crqpoffs=0 / rc=crf / crf=19.0 / qcomp=0.60 / qpstep=4 / stats-write=0 / stats-read=0 / vbv-maxrate=160000 / vbv-bufsize=160000 / vbv-init=0.9 / crf-max=0.0 / crf-min=0.0 / ipratio=1.40 / pbratio=1.30 / aq-mode=1 / aq-strength=0.90 / cutree / zone-count=0 / no-strict-cbr / qg-size=32 / no-rc-grain / qpmax=69 / qpmin=0 / no-const-vbv / sar=0 / overscan=0 / videoformat=5 / range=0 / colorprim=2 / transfer=2 / colormatrix=1 / chromaloc=0 / display-window=0 / max-cll=0,0 / min-luma=0 / max-luma=1023 / log2-max-poc-lsb=8 / vui-timing-info / vui-hrd-info / slices=1 / opt-qp-pps / opt-ref-list-length-pps / no-multi-pass-opt-rps / scenecut-bias=0.05 / no-opt-cu-delta-qp / aq-motion / no-hdr / no-hdr-opt / no-dhdr10-opt / analysis-reuse-level=5 / scale-factor=0 / refine-intra=0 / refine-inter=0 / refine-mv=0 / no-limit-sao / ctu-info=0 / no-lowpass-dct / refine-mv-type=0 / copy-pic=1
Default : Yes
Forced : Yes
Color range : Limited
Matrix coefficients : BT.709
Audio #1
ID : 2
Format : AC-3
Format/Info : Audio Coding 3
Format settings, Endianness : Big
Codec ID : A_AC3
Duration : 1 h 57 min
Bit rate mode : Constant
Bit rate : 640 kb/s
Channel(s) : 6 channels
Channel positions : Front: L C R, Side: L R, LFE
Sampling rate : 48.0 kHz
Frame rate : 31.250 FPS (1536 SPF)
Bit depth : 16 bits
Compression mode : Lossy
Stream size : 538 MiB (7%)
Language : Russian
Service kind : Complete Main
Default : Yes
Forced : No
Audio #2
ID : 3
Format : AC-3
Format/Info : Audio Coding 3
Format settings, Endianness : Big
Codec ID : A_AC3
Duration : 1 h 57 min
Bit rate mode : Constant
Bit rate : 448 kb/s
Channel(s) : 6 channels
Channel positions : Front: L C R, Side: L R, LFE
Sampling rate : 48.0 kHz
Frame rate : 31.250 FPS (1536 SPF)
Bit depth : 16 bits
Compression mode : Lossy
Stream size : 377 MiB (5%)
Language : English
Service kind : Complete Main
Default : No
Forced : No
Text #1
ID : 4
Format : PGS
Muxing mode : zlib
Codec ID : S_HDMV/PGS
Codec ID/Info : Picture based subtitle format used on BDs/HD-DVDs
Duration : 1 h 56 min
Bit rate : 15.5 kb/s
Count of elements : 1688
Stream size : 13.0 MiB (0%)
Language : Russian
Default : Yes
Forced : No
Text #2
ID : 5
Format : PGS
Muxing mode : zlib
Codec ID : S_HDMV/PGS
Codec ID/Info : Picture based subtitle format used on BDs/HD-DVDs
Duration : 1 h 52 min
Bit rate : 16.6 kb/s
Count of elements : 1790
Stream size : 13.4 MiB (0%)
Language : English
Default : No
Forced : No
Menu
00:00:00.000 : en:Chapter 1
00:02:58.178 : en:Chapter 2
00:04:31.980 : en:Chapter 3
00:07:26.112 : en:Chapter 4
00:11:18.260 : en:Chapter 5
00:12:58.569 : en:Chapter 6
00:16:58.183 : en:Chapter 7
00:22:38.815 : en:Chapter 8
00:25:04.878 : en:Chapter 9
00:27:58.343 : en:Chapter 10
00:30:21.486 : en:Chapter 11
00:36:19.177 : en:Chapter 12
00:41:30.321 : en:Chapter 13
00:42:23.999 : en:Chapter 14
00:45:56.336 : en:Chapter 15
00:48:44.463 : en:Chapter 16
00:55:18.898 : en:Chapter 17
00:57:27.277 : en:Chapter 18
00:59:44.998 : en:Chapter 19
01:01:49.414 : en:Chapter 20
01:03:17.001 : en:Chapter 21
01:07:44.393 : en:Chapter 22
01:12:39.521 : en:Chapter 23
01:16:13.527 : en:Chapter 24
01:20:12.474 : en:Chapter 25
01:22:34.532 : en:Chapter 26
01:27:07.513 : en:Chapter 27
01:28:45.236 : en:Chapter 28
01:34:02.219 : en:Chapter 29
01:36:54.308 : en:Chapter 30
01:41:12.316 : en:Chapter 31
01:42:37.276 : en:Chapter 32
01:44:31.807 : en:Chapter 33
01:45:56.266 : en:Chapter 34
01:49:04.496 : en:Chapter 35
01:52:21.735 : en:Chapter 36

Релиз от: Cthulhu



   Похожие торренты   Торрент   Размер 
В этой теме нет новых непрочитанных сообщений. Бегущий по лезвию / Blade Runner (1982) BDRip-HEVC 1080p | Final Cut | D

139 | 11

5.84 ГБ

В этой теме нет новых непрочитанных сообщений. Бегущий по лезвию / Blade Runner (1982) BDRip 1080p | The Final Cut

43 | 11

7.76 ГБ

В этой теме нет новых непрочитанных сообщений. Бегущий по лезвию (Полная версия) / Blade Runner (Final Cut) (1982) BDRip (1080p) от HD-Zona-X

278 | 21

8.82 ГБ

В этой теме нет новых непрочитанных сообщений. Бегущий по лезвию / Blade Runner (1982) BDRip-AVC | The Final Cut | D, P, P2, A

305 | 18

3.97 ГБ

В этой теме нет новых непрочитанных сообщений. Бегущий по лезвию / Blade Runner (1982) HDRip-AVC | Final Cut

99 | 13

1.18 ГБ

В этой теме нет новых непрочитанных сообщений. Бегущий по лезвию / Blade Runner (1982) BDRip 720p | Final Cut

69 | 4

5.52 ГБ

В этой теме нет новых непрочитанных сообщений. Бегущий по лезвию / Blade Runner [Final Cut] (1982) BDRip от HELLYWOOD

318 | 142

2.18 ГБ




Вы не можете начинать темы
Вы не можете отвечать на сообщения
Вы не можете редактировать свои сообщения
Вы не можете удалять свои сообщения
Вы не можете добавлять вложения

Перейти:  
Для Мосгорсуда, Роскомнадзора и рекламодателей: mosgorsud-torrent[собачка]yandex.ru
 Вход
ppkBB3cker v.2 © 2008-2014 @ PPK
[ Time : 0.065s | 18 Queries | GZIP : Off ]

cron