img image001 image001 image001 image001 image001 image001 image001 image001 image001 image001 image001 image001 image001 image001 image001
Planets Sun Sun Sun
Статистика раздачи
Автор: Nickolas3434 | Размер: 4.01 ГБ | Добавлен: 12 янв 2018
Раздают: 245    Качают: 16
Скачать торрент
Скачать торрент
Описание торрента

СообщениеДобавлено: 12 янв 2018 

Информация о фильме
Наименование: Рифаген
Оригинальное Наименование: Riphagen
Произведено: Нидерланды
Категория: драма, военный
Режиссер постановщик: Питер Койперс
В главных ролях: Йерун ван Конингсбругге, Кай Грейданус, Анна Радсвелд, Сигрид Тен Нейпел, Хуб Смит, Боб Ступ, Тьеббо Герритсма
О фильме: Этот фильм расскажет про Рифагена, голландского предателя времён Второй Мировой, который помогал нацистам в поимке евреев, а затем присваивал все их ценности себе. Он уничтожал группы сопротивления и заставил тех, кто искал правосудия после войны, выглядеть дураками.

Файл
Качество: WEB-DLRip 720p
Видео данные: MKV, 1280x528 (2:40:1), 25.000 fps, 4000 Кбит/с
Аудио данные: AC3, 2 ch, 384 Кбит/с
Перевод: Любительский многоголосый (GreenРай Studio)
Продолжительность: 02:12:08
Над релизом работали:
Состав дикторов: Илья Кочетков, Дмитрий Карабасов и Екатерина Костина
Руководитель проекта и координатор: Евгений Овчаренко
Организатор и координатор: Никита Марков
Пиар менеджер студии: Игорь Обухов
Техническая поддержка: Александр Методий
Над переводом работала: Анна Сташкова
General
Unique ID : 201238488370841015114304166620266371318 (0x97651F819FDD9B6E87DBC699C86A18F6)
Complete name : D:РипагенRiphagen.2016.P.WEB-DL.720p.mkv
Format : Matroska
Format version : Version 4 / Version 2
File size : 4.01 GiB
Duration : 2 h 12 min
Overall bit rate mode : Constant
Overall bit rate : 4 342 kb/s
Encoded date : UTC 2018-01-09 12:40:02
Writing application : mkvmerge v8.3.0 ('Over the Horizon') 64bit
Writing library : libebml v1.3.1 + libmatroska v1.4.2
Video
ID : 1
Format : AVC
Format/Info : Advanced Video Codec
Format profile : [email protected]
Format settings, CABAC : Yes
Format settings, ReFrames : 3 frames
Codec ID : V_MPEG4/ISO/AVC
Duration : 2 h 12 min
Bit rate mode : Constant
Bit rate : 4 000 kb/s
Width : 1 280 pixels
Height : 528 pixels
Display aspect ratio : 2.40:1
Frame rate mode : Constant
Frame rate : 25.000 FPS
Standard : NTSC
Color space : YUV
Chroma subsampling : 4:2:0
Bit depth : 8 bits
Scan type : Progressive
Bits/(Pixel*Frame) : 0.237
Stream size : 3.65 GiB (91%)
Language : English
Default : Yes
Forced : No
Color range : Limited
Audio
ID : 2
Format : AC-3
Format/Info : Audio Coding 3
Mode extension : CM (complete main)
Format settings, Endianness : Big
Codec ID : A_AC3
Duration : 2 h 12 min
Bit rate mode : Constant
Bit rate : 384 kb/s
Channel(s) : 2 channels
Channel positions : Front: L R
Sampling rate : 48.0 kHz
Frame rate : 31.250 FPS (1536 spf)
Compression mode : Lossy
Stream size : 363 MiB (9%)
Default : Yes
Forced : No

ВНИМАНИЕ! Присутствует реклама!

Релиз от:



   Похожие торренты   Торрент   Размер 
В этой теме нет новых непрочитанных сообщений. Рифаген / Riphagen (2016) WEB-DLRip | L

567 | 31

2.05 ГБ

В этой теме нет новых непрочитанных сообщений. Футбол. Чемпионат Англии 2016-17. 16-й тур. Эвертон – Арсенал [13.12] (2016) WEB-DLRip 720p

0 | 0

3.12 ГБ

В этой теме нет новых непрочитанных сообщений. Футбол. Чемпионат Англии 2016-17. 16-й тур. Сандерленд – Челси [14.12] (2016) WEB-DLRip 720p

16 | 0

3.04 ГБ

В этой теме нет новых непрочитанных сообщений. Футбол. Чемпионат России 2016-17. 16-й тур. Обзор тура [01.12] (2016) WEB-DLRip 720p

3 | 0

1.22 ГБ

В этой теме нет новых непрочитанных сообщений. Футбол. Чемпионат России 2016-17. 10-й тур. Спартак - Ростов + Pre & Post [15.10] (2016) WEB-DLRip 720p

0 | 0

2.84 ГБ

В этой теме нет новых непрочитанных сообщений. Футбол. Чемпионат Англии 2016-17. 16-й тур. Манчестер Сити – Уотфорд [14.12] (2016) WEB-DLRip 720p

0 | 0

3.39 ГБ

В этой теме нет новых непрочитанных сообщений. Футбол. Чемпионат России 2016-17. 16-й тур. По горячим следам. 1-й день [30.11] (2016) WEB-DLRip 720p

18 | 3

1.17 ГБ




Вы не можете начинать темы
Вы не можете отвечать на сообщения
Вы не можете редактировать свои сообщения
Вы не можете удалять свои сообщения
Вы не можете добавлять вложения

Перейти:  
Для Мосгорсуда, Роскомнадзора и рекламодателей: mosgorsud-torrent[собачка]yandex.ru
 Вход
ppkBB3cker v.2 © 2008-2014 @ PPK
[ Time : 0.068s | 18 Queries | GZIP : Off ]

cron