img image001 image001 image001 image001 image001 image001 image001 image001 image001 image001 image001 image001 image001 image001 image001

Planets Sun Sun Sun
Статистика раздачи
Автор: Nickolas3434 | Размер: 1.41 ГБ | Добавлен: 12 янв 2018
Раздают: 949    Качают: 39
Скачать торрент
Скачать торрент
Описание торрента

СообщениеДобавлено: 12 янв 2018 

Три билборда на границе Эббинга, Миссури / Three Billboards Outside Ebbing, Missouri
Страна: Великобритания США
Производство: Blueprint Pictures
Год выпуска: 2017
Жанр: драма, комедия, криминал
Продолжительность: 01:55:04
Режиссер: Мартин МакДона
Автор сценария: Мартин МакДона
В ролях: Фрэнсис МакДорманд, Калеб Лэндри Джонс, Керри Кондон, Сэм Рокуэлл, Алехандро Барриос, Джейсон Редфорд, Даррел Бритт-Гибсон
Описание: Спустя несколько месяцев после убийства дочери Милдред Хейс преступники так и не найдены. Отчаявшаяся женщина решается на смелый шаг, арендуя на въезде в город три биллборда с посланием к авторитетному главе полиции Уильяму Уиллоуби. Когда в ситуацию оказывается втянут ещё и заместитель шерифа, инфантильный маменькин сынок со склонностью к насилию, офицер Диксон, борьба между Милдред и властями города только усугубляется...

Перевод: отсутствует | субтитры
Субтитры: отдельными файлами | от студии FOCS - русские, английские

Качество: DVDScr
Формат: AVI
Видео кодек: XviD
Аудио кодек: МР3
Видео: 720x304 (2.35:1), 29.970 fps, XviD ~1 619 kbps avg, 0.247 bit/pixel
Аудио: 48.0 kHz, MPEG Layer 3, 2 ch, ~128 kbps avg | ENG / английский
Формат субтитров: *SRT
Дата премьеры (мир): 4 сентября 2017
Дата премьеры (РФ): 1 февраля 2018, «Двадцатый Век Фокс СНГ»


Призы Золотой глобус, 2018 год
» Лучшая женская роль (драма) (Фрэнсис МакДорманд)
» Лучшая мужская роль второго плана (Сэм Рокуэлл)
» Лучший фильм (драма)
» Лучший сценарий

General
Полное имя : Three.Billboards.Outside.Ebbing,Missouri.2017.DVDScreener.rus.sub.FOCS-PB.avi
Формат : AVI
Формат/Информация : Audio Video Interleave
Размер файла : 1,41 Гбайт
Продолжительность : 1 ч. 55 м.
Общий поток : 1759 Кбит/сек
Программа кодирования : VirtualDubMod 1.5.10.3 | www.virtualdub-fr.org || (build 2550/release)
Библиотека кодирования : VirtualDubMod build 2550/release
Видео
Идентификатор : 0
Формат : MPEG-4 Visual
Профиль формата : Advanced [email protected]
Параметр BVOP формата : 2
Параметр QPel формата : Да
Параметр GMC формата : Без точки перехода
Параметр матрицы формата : Default (H.263)
Режим смешивания : Сжатый битовый поток
Идентификатор кодека : XVID
Идентификатор кодека/Подсказка : XviD
Продолжительность : 1 ч. 55 м.
Битрейт : 1619 Кбит/сек
Ширина : 720 пикселей
Высота : 304 пикселя
Соотношение сторон : 2,35:1
Частота кадров : 29,970 (30000/1001) кадров/сек
Цветовое пространство : YUV
Субдискретизация насыщенности : 4:2:0
Битовая глубина : 8 бит
Тип развёртки : Прогрессивная
Метод сжатия : С потерями
Бит/(Пиксели*Кадры) : 0.247
Размер потока : 1,30 Гбайт (92%)
Библиотека кодирования : XviD 1.2.1 (UTC 2008-12-04)
Аудио
Идентификатор : 1
Формат : MPEG Audio
Версия формата : Version 1
Профиль формата : Layer 3
Идентификатор кодека : 55
Идентификатор кодека/Подсказка : MP3
Продолжительность : 1 ч. 55 м.
Вид битрейта : Постоянный
Битрейт : 128 Кбит/сек
Каналы : 2 канала
Частота : 48,0 КГц
Метод сжатия : С потерями
Размер потока : 105 Мбайт (7%)
Выравнивание : Соединение по промежуткам
Продолжительность промежутка : 33 мс. (1,00 видеокадр)
Время предзагрузки промежутка : 504 мс.
Библиотека кодирования : LAME3.99r
Настройки программы : -m s -V 4 -q 2 -lowpass 17 -b 128



   Похожие торренты   Торрент   Размер 
В этой теме нет новых непрочитанных сообщений. Три билборда на границе Эббинга, Миссури / Three Billboards Outside Ebbing, Missouri (2017) DVDScr | Яроцкий

0 | 0

1.46 ГБ

В этой теме нет новых непрочитанных сообщений. Три билборда на границе Эббинга, Миссури / Three Billboards Outside Ebbing, Missouri (2017) DVDScr | Яроцкий

383 | 16

1.46 ГБ

В этой теме нет новых непрочитанных сообщений. Излучины Миссури / The Missouri Breaks (1976) BDRip | P2

276 | 32

2.19 ГБ

В этой теме нет новых непрочитанных сообщений. На границе (1938) DVDRip от New-Team

18 | 6

1.46 ГБ

В этой теме нет новых непрочитанных сообщений. На границе (1938) DVDRip от New-Team

9 | 10

744.51 МБ

В этой теме нет новых непрочитанных сообщений. На границе (1938) DVDRip-AVC от New-Team

12 | 7

1.46 ГБ

В этой теме нет новых непрочитанных сообщений. Я служу на границе (1973) TVRip

21 | 5

1.07 ГБ




Вы не можете начинать темы
Вы не можете отвечать на сообщения
Вы не можете редактировать свои сообщения
Вы не можете удалять свои сообщения
Вы не можете добавлять вложения

Перейти:  
Для Мосгорсуда, Роскомнадзора и рекламодателей: mosgorsud-torrent[собачка]yandex.ru
 Вход
ppkBB3cker v.2 © 2008-2014 @ PPK
[ Time : 0.064s | 18 Queries | GZIP : Off ]

cron