img image001 image001 image001 image001 image001 image001 image001 image001 image001 image001 image001 image001 image001 image001 image001

Planets Sun Sun Sun
Статистика раздачи
Автор: Nickolas3434 | Размер: 754.48 МБ | Добавлен: 12 янв 2018
Раздают: 174    Качают: 13
Скачать торрент
Скачать торрент
Описание торрента

СообщениеДобавлено: 12 янв 2018 



Группа New-Team ВКонтакте
Подписывайтесь так же на мою группу ВКонтакте stalkerok | AVC рипы
Ссылка в группе New-Team
Присоединяйтесь!

Затерянный город Z
The Lost City of Z
«Основано на реальной, но невероятной истории»


Страна: США
Жанр: боевик, драма, приключения, биография, история
Год выпуска: 2016
Продолжительность: 02:20:41
Перевод: Профессиональный (полное дублирование) [Blu-ray RUS]
Субтитры: русские (полные)
Оригинальная аудиодорожка: нет
Режиссер: Джеймс Грэй / James Gray
В ролях: Чарли Ханнэм, Роберт Паттинсон, Сиенна Миллер, Том Холланд, Эдвард Эшли, Энгус МакФадьен, Иен МакДермид, Клайв Фрэнсис, Педро Коэльо, Мэтью Сандерлэнд, Йохан Майерс, Александр Йованович
Описание:
Эльдорадо, таинственная столица инков, загадочный Город Z... Вымысел или реальность? В 1925 году экспедиция полковника Фоссета, члена Королевского Географического общества, бесследно исчезла в джунглях Амазонии в поисках Города Z...

Релиз:
Автор рипа: stalkerok
Сэмпл
Качество видео: BDRip-AVC [Видеоряд локализован] [The Lost City of Z (2016) Blu-ray Disc [RUS] -BLUEBIRD]
Формат видео: MKV
Видео кодек: AVC
Аудио кодек: AAC
Видео: 686 Кбит/сек, 788*330 (2,40:1), в 24,000 кадра/сек, AVC
Аудио: русский, 62,0 Кбит/сек, 48,0 КГц / 24,0 КГц, 2 канала, AAC (HE-AAC / LC)
Навигация по главам: есть

---[Information] [30.11.2017 22:25:12] x264 [info]: frame I:1336 Avg QP:18.52 size: 25957
---[Information] [30.11.2017 22:25:12] x264 [info]: frame P:38088 Avg QP:20.12 size: 8357
---[Information] [30.11.2017 22:25:12] x264 [info]: frame B:163162 Avg QP:21.82 size: 2272
Общее
Уникальный идентификатор : 235905638862145733700682965188041288527 (0xB179C5FD1CCF09E0AFF52B8759B8AB4F)
Полное имя : M:!Rips2017The Lost City of ZThe.Lost.City.of.Z.2016.BDRip-AVC.RUS..stalkerok.new-team.mkv
Формат : Matroska
Версия формата : Version 4 / Version 2
Размер файла : 754 Мбайт
Продолжительность : 2 ч. 20 м.
Общий поток : 750 Кбит/сек
Название фильма : The Lost City of Z (2016) (Rip by stalkerok)
Дата кодирования : UTC 2018-01-11 12:28:12
Программа кодирования : mkvmerge v8.6.1 ('Flying') 64bit
Библиотека кодирования : libebml v1.3.3 + libmatroska v1.4.4
Видео
Идентификатор : 2
Формат : AVC
Формат/Информация : Advanced Video Codec
Профиль формата : [email protected]
Параметр CABAC формата : Да
Параметр ReFrames формата : 16 кадров
Идентификатор кодека : V_MPEG4/ISO/AVC
Продолжительность : 2 ч. 20 м.
Битрейт : 686 Кбит/сек
Ширина : 788 пикселей
Высота : 330 пикселей
Соотношение сторон : 2,40:1
Режим частоты кадров : Постоянный
Частота кадров : 24,000 кадра/сек
Цветовое пространство : YUV
Субдискретизация насыщенности : 4:2:0
Битовая глубина : 8 бит
Тип развёртки : Прогрессивная
Бит/(Пиксели*Кадры) : 0.110
Размер потока : 690 Мбайт (91%)
Заголовок : The Lost City of Z (2016) (Rip by stalkerok)
Библиотека кодирования : x264 core 152 r2851kMod ba24899
Настройки программы : cabac=1 / ref=16 / deblock=1:-3:-2 / analyse=0x3:0x133 / me=umh / subme=11 / psy=1 / fade_compensate=0.00 / psy_rd=1.00:0.00 / mixed_ref=1 / me_range=32 / chroma_me=1 / trellis=2 / 8x8dct=1 / cqm=0 / deadzone=21,11 / fast_pskip=0 / chroma_qp_offset=-2 / threads=10 / lookahead_threads=2 / sliced_threads=0 / nr=0 / decimate=1 / interlaced=0 / bluray_compat=0 / constrained_intra=0 / bframes=16 / b_pyramid=2 / b_adapt=2 / b_bias=0 / direct=3 / weightb=1 / open_gop=0 / weightp=2 / keyint=240 / keyint_min=23 / scenecut=40 / intra_refresh=0 / rc_lookahead=60 / rc=crf / mbtree=0 / crf=20.4000 / qcomp=0.65 / qpmin=0 / qpmax=69 / qpstep=4 / vbv_maxrate=50000 / vbv_bufsize=62500 / crf_max=0.0 / nal_hrd=none / filler=0 / ip_ratio=1.40 / pb_ratio=1.30 / aq=3:0.98 / zones=189843,202586,q=36
Default : Да
Forced : Нет
Аудио
Идентификатор : 3
Формат : AAC
Формат/Информация : Advanced Audio Codec
Профиль формата : HE-AAC / LC
Идентификатор кодека : A_AAC
Продолжительность : 2 ч. 20 м.
Битрейт : 62,0 Кбит/сек
Каналы : 2 канала
Расположение каналов : Front: L R
Частота : 48,0 КГц / 24,0 КГц
Частота кадров : 23,438 кадра/сек (1024 spf)
Метод сжатия : С потерями
Задержка видео : 31 мс.
Размер потока : 62,4 Мбайт (8%)
Язык : Russian
Default : Да
Forced : Нет
Текст
Идентификатор : 1
Формат : UTF-8
Идентификатор кодека : S_TEXT/UTF8
Идентификатор кодека/Информация : UTF-8 Plain Text
Продолжительность : 2 ч. 10 м.
Битрейт : 80 бит/сек
Count of elements : 1554
Размер потока : 76,6 Кбайт (0%)
Язык : Russian
Default : Нет
Forced : Нет
Меню
00:00:00.000 : en:Chapter 1
00:01:34.583 : en:Chapter 2
00:15:17.000 : en:Chapter 3
00:32:49.458 : en:Chapter 4
00:49:20.416 : en:Chapter 5
01:09:27.875 : en:Chapter 6
01:30:27.583 : en:Chapter 7
01:49:27.333 : en:Chapter 8
02:05:57.458 : en:Chapter 9





   Похожие торренты   Торрент   Размер 
В этой теме нет новых непрочитанных сообщений. Затерянный город Z / The Lost City of Z (2016) BDRip-AVC от New-Team | Лицензия

233 | 12

2.87 ГБ

В этой теме нет новых непрочитанных сообщений. Затерянный город Z / The Lost City of Z (2016) BDRip-AVC от New-Team | Лицензия

194 | 13

1.5 ГБ

В этой теме нет новых непрочитанных сообщений. Затерянный город Z / The Lost City of Z (2016) BDRip-AVC от New-Team | iTunes

61 | 5

1.39 ГБ

В этой теме нет новых непрочитанных сообщений. Затерянный город Z / The Lost City of Z (2016) BDRip-AVC от New-Team | iTunes

25 | 0

2.85 ГБ

В этой теме нет новых непрочитанных сообщений. Затерянный город Z / The Lost City of Z (2016) BDRip-AVC от HELLYWOOD | iTunes

41 | 0

2.85 ГБ

В этой теме нет новых непрочитанных сообщений. Затерянный город Z / The Lost City of Z (2016) BDRip-AVC от OlLanDGroup | iTunes

163 | 1

2.11 ГБ

В этой теме нет новых непрочитанных сообщений. Затерянный город Z / The Lost City of Z (2016) BDRip от ExKinoRay | iTunes

135 | 1

1.46 ГБ




Вы не можете начинать темы
Вы не можете отвечать на сообщения
Вы не можете редактировать свои сообщения
Вы не можете удалять свои сообщения
Вы не можете добавлять вложения

Перейти:  
Для Мосгорсуда, Роскомнадзора и рекламодателей: mosgorsud-torrent[собачка]yandex.ru
 Вход
ppkBB3cker v.2 © 2008-2014 @ PPK
[ Time : 0.064s | 19 Queries | GZIP : Off ]

cron