img image001 image001 image001 image001 image001 image001 image001 image001 image001 image001 image001 image001 image001 image001 image001
Planets Sun Sun Sun
Статистика раздачи
Автор: Nickolas3434 | Размер: 2.83 ГБ | Добавлен: 15 янв 2018
Раздают: 8    Качают: 0
Скачать торрент
Скачать торрент
Описание торрента

СообщениеДобавлено: 15 янв 2018 

Информация о фильме
Наименование: Древесный демон
Оригинальное наименование: Enclosure / Arbor Demon
Произведено: США
Категория: ужасы, триллер, драма
Режиссер постановщик: Патрик Ри
В главных ролях: Фиона Дуриф, Кевин Дж. Райан, Джейк Бьюзи, Роб Баутон, Брюс Уильямсон, Мишель Миллс
О фильме: Молодая семейная пара отправляется в поход по лесам, чтобы отдохнуть от мобильных телефонов и отметить годовщину свадьбы. Там они встречают группу охотников, а группа охотников встречает нечто, что убивает даже вооружённых мужчин. Оказывается, за этими лесами закрепилась дурная слава, и не все возвращаются из походов.

Файл
Качество: WEB-DLRip 720p
Видео данные: MKV, 1280x696 (1.85:1), 23.976 fps, 4000 Кбит/с
Аудио данные: AC3, 2 ch, 384 Кбит/с
Перевод: Любительский многоголосый (GreenРай Studio)
Продолжительность: 01:33:20
Над релизом работали:
Состав дикторов: Илья Кочетков и Екатерина Костина, Анна Кириленко
Руководитель проекта и координатор: Евгений Овчаренко
Организатор и координатор: Никита Марков
Пиар менеджер студии: Игорь Обухов
Техническая поддержка: Александр Методий
Над переводом работала: Любовь Геннадиевна
General
Unique ID : 232798908154536980409089383124502769759 (0xAF237056BD71EDCDBFB6ACACBC2AF05F)
Complete name : D:енкложерEnclosure.2016.P.WEB-DL.720p.mkv
Format : Matroska
Format version : Version 4 / Version 2
File size : 2.83 GiB
Duration : 1 h 33 min
Overall bit rate mode : Constant
Overall bit rate : 4 342 kb/s
Encoded date : UTC 2018-01-11 09:49:12
Writing application : mkvmerge v8.3.0 ('Over the Horizon') 64bit
Writing library : libebml v1.3.1 + libmatroska v1.4.2
Video
ID : 1
Format : AVC
Format/Info : Advanced Video Codec
Format profile : [email protected]
Format settings, CABAC : Yes
Format settings, ReFrames : 3 frames
Format settings, GOP : M=4, N=15
Codec ID : V_MPEG4/ISO/AVC
Duration : 1 h 33 min
Bit rate mode : Constant
Bit rate : 4 000 kb/s
Width : 1 280 pixels
Height : 696 pixels
Display aspect ratio : 1.85:1
Frame rate mode : Constant
Frame rate : 23.976 (23976/1000) FPS
Standard : NTSC
Color space : YUV
Chroma subsampling : 4:2:0
Bit depth : 8 bits
Scan type : Progressive
Bits/(Pixel*Frame) : 0.187
Stream size : 2.58 GiB (91%)
Language : English
Default : Yes
Forced : No
Color range : Limited
Audio
ID : 2
Format : AC-3
Format/Info : Audio Coding 3
Mode extension : CM (complete main)
Format settings, Endianness : Big
Codec ID : A_AC3
Duration : 1 h 33 min
Bit rate mode : Constant
Bit rate : 384 kb/s
Channel(s) : 2 channels
Channel positions : Front: L R
Sampling rate : 48.0 kHz
Frame rate : 31.250 FPS (1536 spf)
Compression mode : Lossy
Stream size : 257 MiB (9%)
Default : Yes
Forced : No

ВНИМАНИЕ! Присутствует реклама!

Релиз от:



   Похожие торренты   Торрент   Размер 
В этой теме нет новых непрочитанных сообщений. Древесный демон / Arbor Demon / Enclosure (2016) WEB-DLRip | L

8 | 0

1.37 ГБ

В этой теме нет новых непрочитанных сообщений. Древесный демон / Arbor Demon / Enclosure (2016) WEB-DLRip | L1

12 | 1

1.46 ГБ

В этой теме нет новых непрочитанных сообщений. Демон дерева / Arbor Demon (2016) WEB-DLRip | L

17 | 0

1.37 ГБ

В этой теме нет новых непрочитанных сообщений. Демон дерева / Arbor Demon (2016) WEB-DLRip 720р | L

46 | 4

3.06 ГБ

В этой теме нет новых непрочитанных сообщений. Неоновый демон / The Neon Demon (2016) WEB-DLRip от MegaPeer | A

55 | 32

2.19 ГБ

В этой теме нет новых непрочитанных сообщений. Неоновый демон / The Neon Demon (2016) WEB-DLRip | Звук с TS

1803 | 177

1.45 ГБ

В этой теме нет новых непрочитанных сообщений. Неоновый демон / The Neon Demon (2016) WEB-DLRip от ExKinoRay | Матвеев

294 | 1081

1.46 ГБ




Вы не можете начинать темы
Вы не можете отвечать на сообщения
Вы не можете редактировать свои сообщения
Вы не можете удалять свои сообщения
Вы не можете добавлять вложения

Перейти:  
Для Мосгорсуда, Роскомнадзора и рекламодателей: mosgorsud-torrent[собачка]yandex.ru
 Вход
ppkBB3cker v.2 © 2008-2014 @ PPK
[ Time : 0.059s | 17 Queries | GZIP : Off ]

cron