img image001 image001 image001 image001 image001 image001 image001 image001 image001 image001 image001 image001 image001 image001 image001 image001
Planets Sun Sun Sun
Статистика раздачи
Автор: Nickolas3434 | Размер: 5 ГБ | Добавлен: 15 янв 2018
Раздают: 20    Качают: 0
Скачать торрент
Скачать торрент
Описание торрента

СообщениеДобавлено: 15 янв 2018 

Информация о фильме
Название: Гуляют, болтают
Оригинальное название: Walking and Talking
Год выхода: 1996
Жанр: Драма, мелодрама, комедия
Режиссер: Николь Холофсенер
В ролях: Эми Брэверман, Миранда Стюарт Райн, Кэтрин Кинер, Энн Хеч, Рэндолл Батинкофф, Бренда Денмарк, Винсент Пасторе, Лив Шрайбер, Тодд Филд, Кевин Корригэн, Джозеф Сираво, Рафаэль Альварез, Ритамари Келли, Стив Коэн, Джордан Левинсон, Хезер Готтлиб, Линн Коэн, Эллисон Джэнни
О фильме:
Амелия и Лаура дружат с детских лет. Они все делают вместе и не имеют секретов друг от друга. Но с парнями им не везет: то глупый попадется, то — занудный. А то — симпатичный, скромный, красивый, но… обидчивый.Вот и остается подружкам без конца изливать душу друг другу, пока не выясняется, что их вкусы совпадают и в выборе парней: Лаура и Амелия могут оказаться конкурентками! Но настоящая любовь может ожидать там, где ее совсем не ищешь…

Страна: Великобритания, США, Германия
Студия: Channel Four Films, Pandora Filmproduktion GmbH
Продолжительность: 01:25:31
Перевод: Профессиональный двухголосый закадровый
Файл
Кодек: h.264
Качество: WEBRip 720p
Видео: MPEG-4 AVC, 7960 Кбит/с, 1280x720, 23,976 кадр/с
Звук:
Русский (AC3, 2 ch, 192 Кбит/с) / Профессиональный двухголосый (НТВ)
Английский (AC3, 2 ch, 224 Кбит/с)
Субтитры: Английские
Семпл
General
Unique ID : 212093002519770414098283460378781015269 (0x9F8FA05F57328884999C0A69A62BDCE5)
Complete name : D:uTorrentGuljajut.boltajut.1996.WEBrip.720p.MediaClub.mkv
Format : Matroska
Format version : Version 4 / Version 2
File size : 5.00 GiB
Duration : 1 h 25 min
Overall bit rate : 8 375 kb/s
Encoded date : UTC 2018-01-12 21:36:54 / UTC 2018-01-12T00:35:14Z
Writing application : mkvmerge v17.0.0 ('Be Ur Friend') 64-bit
Writing library : libebml v1.3.5 + libmatroska v1.4.8 / Lavf57.7.2
Video
ID : 1
Format : AVC
Format/Info : Advanced Video Codec
Format profile : [email protected]
Format settings : CABAC / 9 Ref Frames
Format settings, CABAC : Yes
Format settings, RefFrames : 9 frames
Codec ID : V_MPEG4/ISO/AVC
Duration : 1 h 25 min
Bit rate : 7 960 kb/s
Width : 1 280 pixels
Height : 720 pixels
Display aspect ratio : 16:9
Frame rate mode : Constant
Frame rate : 23.976 (24000/1001) FPS
Color space : YUV
Chroma subsampling : 4:2:0
Bit depth : 8 bits
Scan type : Progressive
Bits/(Pixel*Frame) : 0.360
Stream size : 4.65 GiB (93%)
Title : WEBRip by Silverok
Writing library : x264 core 148 r2708 86b7198
Encoding settings : cabac=1 / ref=9 / deblock=1:-3:-3 / analyse=0x3:0x113 / me=umh / subme=11 / psy=1 / psy_rd=1.00:0.00 / mixed_ref=1 / me_range=32 / chroma_me=1 / trellis=2 / 8x8dct=1 / cqm=0 / deadzone=21,11 / fast_pskip=1 / chroma_qp_offset=-2 / threads=12 / lookahead_threads=1 / sliced_threads=0 / nr=0 / decimate=0 / interlaced=0 / bluray_compat=0 / constrained_intra=0 / bframes=16 / b_pyramid=2 / b_adapt=1 / b_bias=0 / direct=1 / weightb=1 / open_gop=0 / weightp=2 / keyint=240 / keyint_min=24 / scenecut=40 / intra_refresh=0 / rc_lookahead=40 / rc=2pass / mbtree=1 / bitrate=7960 / ratetol=1.0 / qcomp=0.60 / qpmin=0 / qpmax=69 / qpstep=4 / cplxblur=20.0 / qblur=0.5 / vbv_maxrate=62500 / vbv_bufsize=78125 / nal_hrd=none / filler=0 / ip_ratio=1.40 / aq=1:1.00
Default : Yes
Forced : No
Color range : Limited
Color primaries : BT.709
Transfer characteristics : BT.709
Matrix coefficients : BT.709
Statistics Tags Issue : mkvmerge v17.0.0 ('Be Ur Friend') 64-bit 2018-01-12 21:36:54 / mkvmerge v17.0.0 ('Be Ur Friend') 64-bit 2018-01-12 21:36:54 / UTC 2018-01-12T00:35:14Z
FromStats_BitRate : 7956254
FromStats_Duration : 01:25:31.168000000
FromStats_FrameCount : 123025
FromStats_StreamSize : 5103109969
Audio #1
ID : 2
Format : AC-3
Format/Info : Audio Coding 3
Codec ID : A_AC3
Duration : 1 h 25 min
Bit rate mode : Constant
Bit rate : 192 kb/s
Channel(s) : 2 channels
Channel positions : Front: L R
Sampling rate : 48.0 kHz
Frame rate : 31.250 FPS (1536 SPF)
Bit depth : 16 bits
Compression mode : Lossy
Stream size : 117 MiB (2%)
Title : Двухголосый закадровый (НТВ)
Language : Russian
Service kind : Complete Main
Default : Yes
Forced : No
Statistics Tags Issue : mkvmerge v17.0.0 ('Be Ur Friend') 64-bit 2018-01-12 21:36:54 / mkvmerge v17.0.0 ('Be Ur Friend') 64-bit 2018-01-12 21:36:54 / UTC 2018-01-12T00:35:14Z
FromStats_BitRate : 192000
FromStats_Duration : 01:25:28.032000000
FromStats_FrameCount : 160251
FromStats_StreamSize : 123072768
Audio #2
ID : 3
Format : AC-3
Format/Info : Audio Coding 3
Codec ID : A_AC3
Duration : 1 h 25 min
Bit rate mode : Constant
Bit rate : 224 kb/s
Channel(s) : 2 channels
Channel positions : Front: L R
Sampling rate : 48.0 kHz
Frame rate : 31.250 FPS (1536 SPF)
Bit depth : 16 bits
Compression mode : Lossy
Delay relative to video : -5 ms
Stream size : 137 MiB (3%)
Language : English
Service kind : Complete Main
Default : No
Forced : No
Statistics Tags Issue : mkvmerge v17.0.0 ('Be Ur Friend') 64-bit 2018-01-12 21:36:54 / mkvmerge v17.0.0 ('Be Ur Friend') 64-bit 2018-01-12 21:36:54 / UTC 2018-01-12T00:35:14Z
FromStats_BitRate : 224000
FromStats_Duration : 01:25:31.104000000
FromStats_FrameCount : 160347
FromStats_StreamSize : 143670912
Text
ID : 4
Format : ASS
Codec ID : S_TEXT/ASS
Codec ID/Info : Advanced Sub Station Alpha
Compression mode : Lossless
Language : English
Default : No
Forced : No
Statistics Tags Issue : mkvmerge v17.0.0 ('Be Ur Friend') 64-bit 2018-01-12 21:36:54 / mkvmerge v17.0.0 ('Be Ur Friend') 64-bit 2018-01-12 21:36:54 / UTC 2018-01-12T00:35:14Z
FromStats_BitRate : 130
FromStats_Duration : 01:24:58.619000000
FromStats_FrameCount : 1338
FromStats_StreamSize : 83393


Релиз от: | Silverok



   Похожие торренты   Торрент   Размер 
В этой теме нет новых непрочитанных сообщений. Ходячие мертвецы / The Walking Dead [05х01-12] (2014) WEB-DL 720p от MediaClub | FOX

7 | 33

16.75 ГБ

В этой теме нет новых непрочитанных сообщений. Ходячие мертвецы / The Walking Dead [05х01] (2014) WEB-DL 720p от MediaClub | FOX

106 | 3

1.42 ГБ

В этой теме нет новых непрочитанных сообщений. Ходячие мертвецы / The Walking Dead [05х01-08] (2014) WEB-DL 720p от MediaClub | FOX

107 | 326

11.26 ГБ

В этой теме нет новых непрочитанных сообщений. Ходячие мертвецы / The Walking Dead [05х01-07] (2014) WEB-DL 720p от MediaClub | FOX

36 | 134

9.85 ГБ

В этой теме нет новых непрочитанных сообщений. Ходячие мертвецы / The Walking Dead [07х01-02 из 16] (2016) WEBRip 720p | FOX, Jaskier

0 | 0

5.46 ГБ

В этой теме нет новых непрочитанных сообщений. Ходячие мертвецы / The Walking Dead [08x01 из 16] (2017) WEBRip 720p | IdeaFilm

0 | 0

2.55 ГБ

В этой теме нет новых непрочитанных сообщений. Ходячие мертвецы / The Walking Dead [08х01 из 16] (2017) WEBRip 720p | Jaskier

0 | 0

2.7 ГБ




Вы не можете начинать темы
Вы не можете отвечать на сообщения
Вы не можете редактировать свои сообщения
Вы не можете удалять свои сообщения
Вы не можете добавлять вложения

Перейти:  
Для Мосгорсуда, Роскомнадзора и рекламодателей: mosgorsud-torrent[собачка]yandex.ru
 Вход
ppkBB3cker v.2 © 2008-2014 @ PPK
[ Time : 0.053s | 19 Queries | GZIP : Off ]

cron