img image001 image001 image001 image001 image001 image001 image001 image001 image001 image001 image001 image001 image001 image001 image001 image001
Planets Sun Sun Sun
Статистика раздачи
Автор: Nickolas3434 | Размер: 9.27 ГБ | Добавлен: 15 янв 2018
Раздают: 18    Качают: 6
Скачать торрент
Скачать торрент
Описание торрента

СообщениеДобавлено: 15 янв 2018 

Информация о фильме
Название: Семь смертей по рецепту
Оригинальное название: 7 morts sur ordonnance
Год выхода: 1975
Жанр: Драма
Режиссер: Жак Руффио
В ролях: Мишель Пикколи, Марина Влади, Жерар Депардьё, Джейн Биркин, Шарль Ванель, Мишель Оклер, Антонио Феррандис, Хосе Мария Прада, Георг Маришка, Моник Мелинан, Колин Серро, Карл Шёнбёк, Этьен Драбе, Ги Беллева
О фильме:
Доктор Пьер Лосре (Мишель Пикколи) – талантливый хирург. Вместе со своей женой он переехал в маленький провинциальный городок на юге Франции и открывает свой частный кабинет. Дела его идут успешно, и это абсолютно не устраивает владельцев местной клиники - семейство Брезе. На их совести уже есть самоубийство одного врача, у которого не было отбоя от пациентов. Теперь завистливые конкуренты начинают травлю хирурга...

Страна: Франция, Германия, Испания
Студия: Belstar Productions, Films 66, TIT Filmproduktion GmbH
Продолжительность: 01:47:56
Перевод: Профессиональный многоголосый закадровый
Файл
Кодек: h.264
Качество: BDRip 720p
Видео: MPEG-4 AVC, 11467 Кбит/с, 1200x720, 24,000 кадр/с
Звук:
Русский (AC3, 2 ch, 192 Кбит/с) / Профессиональный многоголосый со вставками любительской одноголоски
Французский (AC3, 2 ch, 640 Кбит/с)
Субтитры: Нет
Семпл
Перевод: Профессиональный многоголосый со вставками любительской одноголоски. Вставки одноголоски в многоголоску: 00:17:11 - 00:22:13, 00:35:19 - 00:35:49, 00:38:28 - 00:39:46
Огромное спасибо dr12 за помощь в переводе вырезанных фрагментов!!!

General
Unique ID : 236660823511722718335623534030435504386 (0xB20B377773F2C5B499E7D7530015D102)
Complete name : D:uTorrentSem.smertey.po.receptu.1975.BDRip.720p.MediaClub.mkv
Format : Matroska
Format version : Version 4 / Version 2
File size : 9.27 GiB
Duration : 1 h 47 min
Overall bit rate : 12.3 Mb/s
Movie name : Sept mortes sur ordonnance (1975)
Encoded date : UTC 2018-01-12 22:48:56 / UTC 2017-10-28T19:46:54Z
Writing application : mkvmerge v17.0.0 ('Be Ur Friend') 64-bit
Writing library : libebml v1.3.5 + libmatroska v1.4.8 / Lavf57.7.2
Video
ID : 1
Format : AVC
Format/Info : Advanced Video Codec
Format profile : [email protected]
Format settings : CABAC / 9 Ref Frames
Format settings, CABAC : Yes
Format settings, RefFrames : 9 frames
Codec ID : V_MPEG4/ISO/AVC
Duration : 1 h 47 min
Bit rate : 11.5 Mb/s
Width : 1 200 pixels
Height : 720 pixels
Display aspect ratio : 5:3
Frame rate mode : Constant
Frame rate : 24.000 FPS
Color space : YUV
Chroma subsampling : 4:2:0
Bit depth : 8 bits
Scan type : Progressive
Bits/(Pixel*Frame) : 0.553
Stream size : 8.46 GiB (91%)
Title : BDRip by Silverok
Writing library : x264 core 148 r2708 86b7198
Encoding settings : cabac=1 / ref=9 / deblock=1:-3:-3 / analyse=0x3:0x113 / me=umh / subme=11 / psy=1 / psy_rd=1.00:0.00 / mixed_ref=1 / me_range=32 / chroma_me=1 / trellis=2 / 8x8dct=1 / cqm=0 / deadzone=21,11 / fast_pskip=1 / chroma_qp_offset=-2 / threads=12 / lookahead_threads=1 / sliced_threads=0 / nr=0 / decimate=0 / interlaced=0 / bluray_compat=0 / constrained_intra=0 / bframes=11 / b_pyramid=2 / b_adapt=1 / b_bias=0 / direct=1 / weightb=1 / open_gop=0 / weightp=2 / keyint=240 / keyint_min=24 / scenecut=40 / intra_refresh=0 / rc_lookahead=40 / rc=2pass / mbtree=1 / bitrate=11467 / ratetol=1.0 / qcomp=0.60 / qpmin=0 / qpmax=69 / qpstep=4 / cplxblur=20.0 / qblur=0.5 / vbv_maxrate=62500 / vbv_bufsize=78125 / nal_hrd=none / filler=0 / ip_ratio=1.40 / aq=1:1.00
Default : Yes
Forced : No
Color range : Limited
Color primaries : BT.709
Transfer characteristics : BT.709
Matrix coefficients : BT.709
Statistics Tags Issue : mkvmerge v17.0.0 ('Be Ur Friend') 64-bit 2018-01-12 22:48:56 / mkvmerge v17.0.0 ('Be Ur Friend') 64-bit 2018-01-12 22:48:56 / UTC 2017-10-28T19:46:54Z
FromStats_BitRate : 11464775
FromStats_Duration : 01:47:56.542000000
FromStats_FrameCount : 155437
FromStats_StreamSize : 9281512479
Audio #1
ID : 2
Format : AC-3
Format/Info : Audio Coding 3
Codec ID : A_AC3
Duration : 1 h 47 min
Bit rate mode : Constant
Bit rate : 192 kb/s
Channel(s) : 2 channels
Channel positions : Front: L R
Sampling rate : 48.0 kHz
Frame rate : 31.250 FPS (1536 SPF)
Bit depth : 16 bits
Compression mode : Lossy
Stream size : 148 MiB (2%)
Title : Профессиональный многоголосый со вставками любительской одноголоски
Language : Russian
Service kind : Complete Main
Default : Yes
Forced : No
Statistics Tags Issue : mkvmerge v17.0.0 ('Be Ur Friend') 64-bit 2018-01-12 22:48:56 / mkvmerge v17.0.0 ('Be Ur Friend') 64-bit 2018-01-12 22:48:56 / UTC 2017-10-28T19:46:54Z
FromStats_BitRate : 192000
FromStats_Duration : 01:47:56.384000000
FromStats_FrameCount : 202387
FromStats_StreamSize : 155433216
Audio #2
ID : 3
Format : AC-3
Format/Info : Audio Coding 3
Codec ID : A_AC3
Duration : 1 h 47 min
Bit rate mode : Constant
Bit rate : 640 kb/s
Channel(s) : 2 channels
Channel positions : Front: L R
Sampling rate : 48.0 kHz
Frame rate : 31.250 FPS (1536 SPF)
Bit depth : 16 bits
Compression mode : Lossy
Delay relative to video : -5 ms
Stream size : 494 MiB (5%)
Language : French
Service kind : Complete Main
Default : No
Forced : No
Statistics Tags Issue : mkvmerge v17.0.0 ('Be Ur Friend') 64-bit 2018-01-12 22:48:56 / mkvmerge v17.0.0 ('Be Ur Friend') 64-bit 2018-01-12 22:48:56 / UTC 2017-10-28T19:46:54Z
FromStats_BitRate : 640000
FromStats_Duration : 01:47:56.352000000
FromStats_FrameCount : 202386
FromStats_StreamSize : 518108160
Menu
00:00:00.000 : :Chapter 1
00:08:55.208 : :Chapter 2
00:18:03.292 : :Chapter 3
00:28:09.000 : :Chapter 4
00:35:57.875 : :Chapter 5
00:45:00.167 : :Chapter 6
00:52:52.958 : :Chapter 7
01:02:43.792 : :Chapter 8
01:11:17.167 : :Chapter 9
01:20:53.750 : :Chapter 10
01:30:30.250 : :Chapter 11
01:39:12.583 : :Chapter 12


Релиз от: | Silverok



   Похожие торренты   Торрент   Размер 
В этой теме нет новых непрочитанных сообщений. Семь смертей по рецепту / 7 morts sur ordonnance (1975) BDRip AVC от MediaClub | P

3 | 3

3.07 ГБ

В этой теме нет новых непрочитанных сообщений. Семь смертей по рецепту / Sept morts sur ordonnance (1975) DVDRip от KINOREAKTOR

8 | 6

1.43 ГБ

В этой теме нет новых непрочитанных сообщений. Печать судьбы у каждого своя. Семь самых странных смертей (2016) SATRip

8 | 0

1.08 ГБ

В этой теме нет новых непрочитанных сообщений. Паскуалино «Семь красоток» / Pasqualino Settebellezze (1975) BDRip от Koenig | P2

14 | 0

1.45 ГБ

В этой теме нет новых непрочитанных сообщений. Семь / Seven / Se7en (1995) BDRip 720p от MediaClub | Ремастеринговая версия

114 | 11

7.55 ГБ

В этой теме нет новых непрочитанных сообщений. Любовь, секс и химия / Любовь по рецепту и без / Better Living Through Chemistry (2014) BDRip 1080p от MediaClub | D | Лицензия

275 | 18

6.06 ГБ

В этой теме нет новых непрочитанных сообщений. Звезда пленительного счастья (1975) BDRip 720p от MediaClub

40 | 3

10.92 ГБ




Вы не можете начинать темы
Вы не можете отвечать на сообщения
Вы не можете редактировать свои сообщения
Вы не можете удалять свои сообщения
Вы не можете добавлять вложения

Перейти:  
Для Мосгорсуда, Роскомнадзора и рекламодателей: mosgorsud-torrent[собачка]yandex.ru
 Вход
ppkBB3cker v.2 © 2008-2014 @ PPK
[ Time : 0.059s | 18 Queries | GZIP : Off ]

cron