img image001 image001 image001 image001 image001 image001 image001 image001 image001 image001 image001 image001 image001 image001 image001 image001
Planets Sun Sun Sun
Статистика раздачи
Автор: Nickolas3434 | Размер: 2.18 ГБ | Добавлен: 15 янв 2018
Раздают: 4    Качают: 1
Скачать торрент
Скачать торрент
Описание торрента

СообщениеДобавлено: 15 янв 2018 




Информация о фильме
Название: Домино
Оригинальное название: Domino
Год выхода: 2005
Жанр: боевик, триллер, драма, криминал, биография
Режиссер: Тони Скотт
В ролях: Кира Найтли, Микки Рурк, Эдгар Рамирез, Делрой Линдо, Мо’Ник, Мена Сувари, Мейси Грей, Жаклин Биссет, Дэбни Коулмен, Брайан Остин Грин
О фильме:
Молодая симпатичная двадцатилетняя девушка Харви работает фотомоделью, все в ее жизни течет спокойно и размеренно. Но Харви такая жизнь начинает наскучивать, она решает, что светская гламурная жизнь совсем не для нее. Харви уходит с работы и оставляет свой дом в Беверли-Хиллз. Теперь она собирается освоить совершенно не женскую профессию – «охотник за головами». Молодая и симпатичная девушка собирается за вознаграждение охотиться на разыскиваемых полицией убийц, насильников и наркодиллеров по всей стране.

Страна: Франция, США, Великобритания
Продолжительность: 02:07:25
Перевод: Профессиональный (полное дублирование)
Файл
Кодек: h.264
Качество: BDRip-AVC [Domino.2005.BDRemux.1080p.VC-1]
Видео: [email protected], ~1995 Кбит/с, 1008x420, 24.000 кадр/с
Звук: AC3, 6 ch, 448 Кбит/с
Субтитры: Русские, английские


General
Unique ID : 32996579340491288250278333511251276985 (0x18D2E8F729EE29683EF04B4529E034B9)
Complete name : F:FILMSДомино.(2005).BDRIP-AVC.D.[-=DoMiNo=-].mkv
Format : Matroska
Format version : Version 4 / Version 2
File size : 2.18 GiB
Duration : 2 h 7 min
Overall bit rate : 2 445 kb/s
Movie name : Домино
Deion : Дочь известного в 60-е годы актера Лоуренса Харви, Домино, устав от роскоши и скучной жизни, посещает занятия для «охотников за головами». Там она знакомится с двумя головорезами — Тэдом и Чоко, который без памяти влюбляется в Домино. Объединившись с ними, она становится самой известной женщиной, занимающейся тем, что разыскивает преступников за награду.
Writing application : XviD4PSP 7.0.437 DAILY
Writing library : Lavf57.71.100
ErrorDetectionType : Per level 1
Attachments : poster.jpg
COMPOSER : Гарри Грегсон-Уильямс
COUNTRY : Франция, США, Великобритания
DATE : 2005
DIRECTOR : Тони Скотт
GENRE : боевик, триллер, драма, криминал, биография
HD_VIDEO : 1
IMDB_RATING : 6.00
ITUNEXTC : mpaa|R|400|
Language : und
MEDIA_TYPE : 9
ORIGINAL_TITLE : Domino
PRODUCER : Сэмюэл Хадида, Тони Скотт, Скип Чейссон, Лиза Эллзи, Тоби Эммерих, Дэвид Хадида, Виктор Хадида, Зак Шифф-Эбрамс, Питер Тумазис, Бэрри Х. Уолдман
RATING : 6.790
WRITER : Ричард Келли, Стив Барансик
Video
ID : 1
Format : AVC
Format/Info : Advanced Video Codec
Format profile : [email protected]
Format settings : CABAC / 11 Ref Frames
Format settings, CABAC : Yes
Format settings, ReFrames : 11 frames
Codec ID : V_MPEG4/ISO/AVC
Duration : 2 h 7 min
Bit rate : 1 995 kb/s
Width : 1 008 pixels
Height : 420 pixels
Display aspect ratio : 2.40:1
Frame rate mode : Constant
Frame rate : 24.000 FPS
Color space : YUV
Chroma subsampling : 4:2:0
Bit depth : 8 bits
Scan type : Progressive
Bits/(Pixel*Frame) : 0.196
Stream size : 1.73 GiB (80%)
Title : RIP_BY_-=DoMiNo=-
Writing library : x264 core 155 r2893M b00bcaf
Encoding settings : cabac=1 / ref=11 / deblock=1:-3:-3 / analyse=0x3:0x133 / me=umh / subme=11 / psy=1 / psy_rd=1.00:0.15 / mixed_ref=1 / me_range=56 / chroma_me=1 / trellis=2 / 8x8dct=1 / cqm=0 / deadzone=21,11 / fast_pskip=0 / chroma_qp_offset=-3 / threads=5 / lookahead_threads=1 / sliced_threads=0 / nr=0 / decimate=1 / interlaced=0 / bluray_compat=0 / constrained_intra=0 / bframes=12 / b_pyramid=2 / b_adapt=2 / b_bias=0 / direct=3 / weightb=1 / open_gop=0 / weightp=2 / keyint=240 / keyint_min=24 / scenecut=40 / intra_refresh=0 / rc_lookahead=60 / rc=2pass / mbtree=1 / bitrate=1995 / ratetol=1.0 / qcomp=0.70 / qpmin=0 / qpmax=69 / qpstep=4 / cplxblur=20.0 / qblur=0.5 / ip_ratio=1.40 / aq=1:1.00
Language : English
Default : Yes
Forced : No
Audio
ID : 2
Format : AC-3
Format/Info : Audio Coding 3
Codec ID : A_AC3
Duration : 2 h 7 min
Bit rate mode : Constant
Bit rate : 448 kb/s
Channel(s) : 6 channels
Channel positions : Front: L C R, Side: L R, LFE
Sampling rate : 48.0 kHz
Frame rate : 31.250 FPS (1536 SPF)
Bit depth : 16 bits
Compression mode : Lossy
Stream size : 408 MiB (18%)
Title : Dub
Language : Russian
Service kind : Complete Main
Default : Yes
Forced : No
Text #1
ID : 3
Format : UTF-8
Codec ID : S_TEXT/UTF8
Codec ID/Info : UTF-8 Plain Text
Language : Russian
Default : Yes
Forced : No
Text #2
ID : 4
Format : UTF-8
Codec ID : S_TEXT/UTF8
Codec ID/Info : UTF-8 Plain Text
Language : English
Default : No
Forced : No
Menu
00:00:00.000 : :1
00:09:31.333 : :2
00:19:49.625 : :3
00:31:00.458 : :4
00:42:35.250 : :5
00:53:53.750 : :6
01:02:09.583 : :7
01:12:23.792 : :8
01:22:22.750 : :9
01:35:43.292 : :10
01:46:39.000 : :11
01:56:37.958 : :12





   Похожие торренты   Торрент   Размер 
В этой теме нет новых непрочитанных сообщений. Домино / Domino (2005) BDRip | P2

31 | 5

2.18 ГБ

В этой теме нет новых непрочитанных сообщений. Домино / Domino (2005) BDRip | D

102 | 8

1.46 ГБ

В этой теме нет новых непрочитанных сообщений. Домино / Domino (2005) BDRip-AVC | iPad | D,P2

28 | 9

3.52 ГБ

В этой теме нет новых непрочитанных сообщений. Домино / Domino (2005) BDRip 720p | D,P,P2

25 | 19

7.97 ГБ

В этой теме нет новых непрочитанных сообщений. Домино / Domino (2005) BDRip-AVC от 0ptimus | D, P2

34 | 7

4.21 ГБ

В этой теме нет новых непрочитанных сообщений. Домино / Domino (2005) BDRip от MediaClub | КПК

57 | 9

577.37 МБ

В этой теме нет новых непрочитанных сообщений. Домино / Domino (2005) BDRip от HQCLUB

155 | 3

2.18 ГБ




Вы не можете начинать темы
Вы не можете отвечать на сообщения
Вы не можете редактировать свои сообщения
Вы не можете удалять свои сообщения
Вы не можете добавлять вложения

Перейти:  
Для Мосгорсуда, Роскомнадзора и рекламодателей: mosgorsud-torrent[собачка]yandex.ru
 Вход
ppkBB3cker v.2 © 2008-2014 @ PPK
[ Time : 0.056s | 18 Queries | GZIP : Off ]

cron