img image001 image001 image001 image001 image001 image001 image001 image001 image001 image001 image001 image001 image001 image001 image001 image001
Planets Sun Sun Sun
Статистика раздачи
Автор: Nickolas3434 | Размер: 12.93 ГБ | Добавлен: 15 янв 2018
Раздают: 12    Качают: 5
Скачать торрент
Скачать торрент
Описание торрента

СообщениеДобавлено: 15 янв 2018 

Моя прекрасная леди / My Fair Lady

Страна: США
Студия: Warner Bros. Pictures
Жанр: мюзикл, драма, мелодрама, семейный
Год выпуска: 1964
Продолжительность: 02:53:01
Перевод: Профессиональный многоголосый, авторский.
Режиссер: Джордж Кьюкор / George Cukor
В ролях: Одри Хепберн, Рекс Харрисон, Стэнли Холлоуэй, Уилфрид Хайд-Уайт, Глэдис Купер, Джереми Бретт, Теодор Бикел, Мона Уошборн, Изобел Элсом, Джек Холлэнд
Описание: Знаменитый профессор Генри Хиггинс заключает пари со своим другом, что сможет обучить безграмотную замарашку, уличную цветочницу Элизу правильной речи и высокосветским манерам и выдать ее за настоящую леди. Искрометный юмор, забавные ситуации, Золушка на глазах у зрителей превращается в принцессу, а убежденный холостяк — во влюбленного.

Кодек: х264
Качество: BDRip 720p
Видео: MPEG-4 AVC, 1280х536, 23,976fps, ~ 7300 Кбит/сек , [email protected]
Аудио 1: Russian, 48 kHz, AC3, 6 ch, 448 Кбит/с (Многоголосый закадровый, ДВД Магия)
Аудио 2: Russian, 48 kHz, AC3, 2 ch, 192.00 Кбит/сек (Одноголосый закадровый, Н.Александрович - Мосфильм)
Аудио 3: Russian, 48 kHz, AC3, 6 ch, 448 Кбит/сек (Одноголосый закадровый, Ю.Живов)
Аудио 4: Russian, 48 kHz, AC3, 6 ch, 448 Кбит/сек (Одноголосый закадровый, Ю.Сербин)
Аудио 5: Russian, 48 kHz, AC3, 6 ch, 448 Кбит/сек (Многоголосый закадровый, Фильм-Престиж)
Аудио 6: Russian, 48 kHz, AC3, 2 ch, 192.00 Кбит/сек (Многоголосый закадровый, НТВ+)
Аудио 7: Russian, 48 kHz, AC3, 2 ch, 192.00 Кбит/сек (Многоголосый закадровый, ДТВ)
Аудио 8: Russian, 48 kHz, AC3, 2 ch, 192.00 Кбит/сек (Многоголосый закадровый, Премьер)
Аудио 9: Russian, 48 kHz, AC3, 6 ch, 448 Кбит/сек (Одноголосый закадровый, Г.Либергал)
Аудио 10: English, 48 kHz, AC3, 6 ch, 384 Кбит/сек
Формат субтитров:Russian (Только песни), Russian, English (SRT)
Главы: Есть
x264 [info]: frame I:1482 Avg QP:15.51 size:158734
x264 [info]: frame P:49797 Avg QP:17.77 size: 74647
x264 [info]: frame B:197568 Avg QP:19.50 size: 27937
Общее
Уникальный идентификатор : 202802179758500861475601744891634305608 (0x98924771AE6DF904BE0B4CD3E9F0CA48)
Полное имя : E:Мои рипыМоя прекрасная леди 1964_BDRip 720p_KORSAR.mkv
Формат : Matroska
Версия формата : Version 2
Размер файла : 12,9 Гбайт
Продолжительность : 2 ч. 53 м.
Общий поток : 10,7 Мбит/сек
Дата кодирования : UTC 2018-01-11 20:52:26
Программа кодирования : mkvmerge v5.8.0 ('No Sleep / Pillow') built on Sep 2 2012 15:37:04
Библиотека кодирования : libebml v1.2.3 + libmatroska v1.3.0
Видео
Идентификатор : 1
Формат : AVC
Формат/Информация : Advanced Video Codec
Профиль формата : [email protected]
Настройки формата : CABAC / 12 Ref Frames
Параметр CABAC формата : Да
Параметр RefFrames формата : 12 кадров
Идентификатор кодека : V_MPEG4/ISO/AVC
Продолжительность : 2 ч. 53 м.
Битрейт : 7300 Кбит/сек
Ширина : 1280 пикселей
Высота : 536 пикселей
Соотношение сторон : 2,40:1
Режим частоты кадров : Постоянный
Частота кадров : 23,976 (24000/1001) кадра/сек
Цветовое пространство : YUV
Субдискретизация насыщенности : 4:2:0
Битовая глубина : 8 бит
Тип развёртки : Прогрессивная
Бит/(Пиксели*Кадры) : 0.444
Размер потока : 8,57 Гбайт (66%)
Библиотека кодирования : x264 core 152 r2851kMod ba24899
Настройки программы : cabac=1 / ref=12 / deblock=1:-2:-2 / analyse=0x3:0x113 / me=umh / subme=11 / psy=1 / fade_compensate=0.00 / psy_rd=1.02:0.06 / mixed_ref=1 / me_range=48 / chroma_me=1 / trellis=2 / 8x8dct=1 / cqm=0 / deadzone=21,11 / fast_pskip=0 / chroma_qp_offset=-3 / threads=12 / lookahead_threads=3 / sliced_threads=0 / nr=0 / decimate=0 / interlaced=0 / bluray_compat=0 / constrained_intra=0 / bframes=12 / b_pyramid=2 / b_adapt=2 / b_bias=0 / direct=3 / weightb=1 / open_gop=0 / weightp=2 / keyint=240 / keyint_min=23 / scenecut=40 / intra_refresh=0 / rc_lookahead=40 / rc=2pass / mbtree=0 / bitrate=7300 / ratetol=1.0 / qcomp=0.60 / qpmin=0 / qpmax=39 / qpstep=4 / cplxblur=20.0 / qblur=0.5 / vbv_maxrate=50000 / vbv_bufsize=62500 / nal_hrd=none / filler=0 / ip_ratio=1.25 / pb_ratio=1.30 / aq=1:0.90
Язык : English
Default : Да
Forced : Нет
Цветовой диапазон : Limited
Основные цвета : BT.709
Характеристики трансфера : BT.709
Коэффициенты матрицы : BT.709
Аудио #1
Идентификатор : 2
Формат : AC-3
Формат/Информация : Audio Coding 3
Параметр Endianness формата : Big
Идентификатор кодека : A_AC3
Продолжительность : 2 ч. 53 м.
Вид битрейта : Постоянный
Битрейт : 448 Кбит/сек
Каналы : 6 каналов
Расположение каналов : Front: L C R, Side: L R, LFE
Частота : 48,0 КГц
Частота кадров : 31,250 кадров/сек (1536 SPF)
Битовая глубина : 16 бит
Метод сжатия : С потерями
Размер потока : 554 Мбайт (4%)
Заголовок : DVD Магия
Язык : Russian
Default : Да
Forced : Нет
Аудио #2
Идентификатор : 3
Формат : AC-3
Формат/Информация : Audio Coding 3
Параметр Endianness формата : Big
Идентификатор кодека : A_AC3
Продолжительность : 2 ч. 53 м.
Вид битрейта : Постоянный
Битрейт : 192 Кбит/сек
Каналы : 2 канала
Расположение каналов : Front: L R
Частота : 48,0 КГц
Частота кадров : 31,250 кадров/сек (1536 SPF)
Битовая глубина : 16 бит
Метод сжатия : С потерями
Размер потока : 238 Мбайт (2%)
Заголовок : Н.Александрович - Мосфильм
Язык : Russian
Default : Нет
Forced : Нет
Аудио #3
Идентификатор : 4
Формат : AC-3
Формат/Информация : Audio Coding 3
Параметр Endianness формата : Big
Идентификатор кодека : A_AC3
Продолжительность : 2 ч. 53 м.
Вид битрейта : Постоянный
Битрейт : 448 Кбит/сек
Каналы : 6 каналов
Расположение каналов : Front: L C R, Side: L R, LFE
Частота : 48,0 КГц
Частота кадров : 31,250 кадров/сек (1536 SPF)
Битовая глубина : 16 бит
Метод сжатия : С потерями
Размер потока : 554 Мбайт (4%)
Заголовок : Ю. Живов
Язык : Russian
Default : Нет
Forced : Нет
Аудио #4
Идентификатор : 5
Формат : AC-3
Формат/Информация : Audio Coding 3
Параметр Endianness формата : Big
Идентификатор кодека : A_AC3
Продолжительность : 2 ч. 53 м.
Вид битрейта : Постоянный
Битрейт : 448 Кбит/сек
Каналы : 6 каналов
Расположение каналов : Front: L C R, Side: L R, LFE
Частота : 48,0 КГц
Частота кадров : 31,250 кадров/сек (1536 SPF)
Битовая глубина : 16 бит
Метод сжатия : С потерями
Размер потока : 554 Мбайт (4%)
Заголовок : Ю. Сербин
Язык : Russian
Default : Нет
Forced : Нет
Аудио #5
Идентификатор : 6
Формат : AC-3
Формат/Информация : Audio Coding 3
Параметр Endianness формата : Big
Идентификатор кодека : A_AC3
Продолжительность : 2 ч. 53 м.
Вид битрейта : Постоянный
Битрейт : 448 Кбит/сек
Каналы : 6 каналов
Расположение каналов : Front: L C R, Side: L R, LFE
Частота : 48,0 КГц
Частота кадров : 31,250 кадров/сек (1536 SPF)
Битовая глубина : 16 бит
Метод сжатия : С потерями
Размер потока : 554 Мбайт (4%)
Заголовок : MVO Фильм престиж
Язык : Russian
Default : Нет
Forced : Нет
Аудио #6
Идентификатор : 7
Формат : AC-3
Формат/Информация : Audio Coding 3
Параметр Endianness формата : Big
Идентификатор кодека : A_AC3
Продолжительность : 2 ч. 53 м.
Вид битрейта : Постоянный
Битрейт : 192 Кбит/сек
Каналы : 2 канала
Расположение каналов : Front: L R
Частота : 48,0 КГц
Частота кадров : 31,250 кадров/сек (1536 SPF)
Битовая глубина : 16 бит
Метод сжатия : С потерями
Размер потока : 238 Мбайт (2%)
Заголовок : MVO НТВ+
Язык : Russian
Default : Нет
Forced : Нет
Аудио #7
Идентификатор : 8
Формат : AC-3
Формат/Информация : Audio Coding 3
Параметр Endianness формата : Big
Идентификатор кодека : A_AC3
Продолжительность : 2 ч. 53 м.
Вид битрейта : Постоянный
Битрейт : 192 Кбит/сек
Каналы : 2 канала
Расположение каналов : Front: L R
Частота : 48,0 КГц
Частота кадров : 31,250 кадров/сек (1536 SPF)
Битовая глубина : 16 бит
Метод сжатия : С потерями
Размер потока : 238 Мбайт (2%)
Заголовок : MVO ДТВ
Язык : Russian
Default : Нет
Forced : Нет
Аудио #8
Идентификатор : 9
Формат : AC-3
Формат/Информация : Audio Coding 3
Параметр Endianness формата : Big
Идентификатор кодека : A_AC3
Продолжительность : 2 ч. 53 м.
Вид битрейта : Постоянный
Битрейт : 192 Кбит/сек
Каналы : 2 канала
Расположение каналов : Front: L R
Частота : 48,0 КГц
Частота кадров : 31,250 кадров/сек (1536 SPF)
Битовая глубина : 16 бит
Метод сжатия : С потерями
Размер потока : 238 Мбайт (2%)
Заголовок : MVO Премьер
Язык : Russian
Default : Нет
Forced : Нет
Аудио #9
Идентификатор : 10
Формат : AC-3
Формат/Информация : Audio Coding 3
Параметр Endianness формата : Big
Идентификатор кодека : A_AC3
Продолжительность : 2 ч. 53 м.
Вид битрейта : Постоянный
Битрейт : 448 Кбит/сек
Каналы : 6 каналов
Расположение каналов : Front: L C R, Side: L R, LFE
Частота : 48,0 КГц
Частота кадров : 31,250 кадров/сек (1536 SPF)
Битовая глубина : 16 бит
Метод сжатия : С потерями
Размер потока : 554 Мбайт (4%)
Заголовок : Г. Либергал
Язык : Russian
Default : Нет
Forced : Нет
Аудио #10
Идентификатор : 11
Формат : AC-3
Формат/Информация : Audio Coding 3
Параметр Endianness формата : Big
Идентификатор кодека : A_AC3
Продолжительность : 2 ч. 53 м.
Вид битрейта : Постоянный
Битрейт : 384 Кбит/сек
Каналы : 6 каналов
Расположение каналов : Front: L C R, Side: L R, LFE
Частота : 48,0 КГц
Частота кадров : 31,250 кадров/сек (1536 SPF)
Битовая глубина : 16 бит
Метод сжатия : С потерями
Размер потока : 475 Мбайт (4%)
Язык : English
Default : Нет
Forced : Нет
Текст #1
Идентификатор : 12
Формат : UTF-8
Идентификатор кодека : S_TEXT/UTF8
Идентификатор кодека/Информация : UTF-8 Plain Text
Заголовок : Russian [Только песни]
Язык : Russian
Default : Да
Forced : Нет
Текст #2
Идентификатор : 13
Формат : UTF-8
Идентификатор кодека : S_TEXT/UTF8
Идентификатор кодека/Информация : UTF-8 Plain Text
Заголовок : Russian
Язык : Russian
Default : Нет
Forced : Нет
Текст #3
Идентификатор : 14
Формат : UTF-8
Идентификатор кодека : S_TEXT/UTF8
Идентификатор кодека/Информация : UTF-8 Plain Text
Заголовок : English
Язык : English
Default : Нет
Forced : Нет
Меню
00:00:00.000 : en:Chapter 01
00:03:31.169 : en:Chapter 02
00:05:47.555 : en:Chapter 03
00:09:52.508 : en:Chapter 04
00:12:51.270 : en:Chapter 05
00:14:29.827 : en:Chapter 06
00:19:06.562 : en:Chapter 07
00:24:10.657 : en:Chapter 08
00:26:11.069 : en:Chapter 09
00:32:38.915 : en:Chapter 10
00:37:31.415 : en:Chapter 11
00:39:46.759 : en:Chapter 12
00:44:47.810 : en:Chapter 13
00:50:42.622 : en:Chapter 14
00:55:14.644 : en:Chapter 15
00:59:34.946 : en:Chapter 16
01:03:56.999 : en:Chapter 17
01:06:18.391 : en:Chapter 18
01:11:13.227 : en:Chapter 19
01:12:46.779 : en:Chapter 20
01:16:59.406 : en:Chapter 21
01:21:04.860 : en:Chapter 22
01:24:34.944 : en:Chapter 23
01:26:12.959 : en:Chapter 24
01:30:28.047 : en:Chapter 25
01:32:55.736 : en:Chapter 26
01:37:45.860 : en:Chapter 27
01:40:10.587 : en:Chapter 28
01:41:14.777 : en:Chapter 29
01:41:55.109 : en:Chapter 30
01:43:08.182 : en:Chapter 31
01:44:49.700 : en:Chapter 32
01:46:51.363 : en:Chapter 33
01:48:59.282 : en:Chapter 34
01:52:52.182 : en:Chapter 35
01:59:02.343 : en:Chapter 36
02:06:14.149 : en:Chapter 37
02:07:44.657 : en:Chapter 38
02:09:03.819 : en:Chapter 39
02:12:10.464 : en:Chapter 40
02:15:21.029 : en:Chapter 41
02:19:02.250 : en:Chapter 42
02:25:05.905 : en:Chapter 43
02:27:17.954 : en:Chapter 44
02:32:10.579 : en:Chapter 45
02:34:52.908 : en:Chapter 46
02:39:03.659 : en:Chapter 47
02:43:55.158 : en:Chapter 48
02:48:33.436 : en:Chapter 49
02:51:43.710 : en:Chapter 50





   Похожие торренты   Торрент   Размер 
В этой теме нет новых непрочитанных сообщений. Моя прекрасная леди / My Fair Lady (1964) BDRip 720p от FREEISLAND

47 | 12

8.74 ГБ

В этой теме нет новых непрочитанных сообщений. Моя прекрасная леди / My Fair Lady (1964) BDRip от FilmoRay & Sheikn

27 | 14

6.57 ГБ

В этой теме нет новых непрочитанных сообщений. Моя прекрасная леди / My Fair Lady (1964) Blu-Ray

1 | 3

46.05 ГБ

В этой теме нет новых непрочитанных сообщений. Моя прекрасная леди / My Fair Lady (1964) DVDRip

33 | 6

2.92 ГБ

В этой теме нет новых непрочитанных сообщений. Моя прекрасная леди / My Fair Lady (1964) DVDRip

245 | 11

1.37 ГБ

В этой теме нет новых непрочитанных сообщений. Моя прекрасная леди / My Fair Lady (1964) HDRip

91 | 5

2.91 ГБ

В этой теме нет новых непрочитанных сообщений. Моя прекрасная леди / My Fair Lady (1964) HDTVRip от KINOREAKTOR (Sheikn)

10 | 5

5.22 ГБ




Вы не можете начинать темы
Вы не можете отвечать на сообщения
Вы не можете редактировать свои сообщения
Вы не можете удалять свои сообщения
Вы не можете добавлять вложения

Перейти:  
Для Мосгорсуда, Роскомнадзора и рекламодателей: mosgorsud-torrent[собачка]yandex.ru
 Вход
ppkBB3cker v.2 © 2008-2014 @ PPK
[ Time : 0.047s | 18 Queries | GZIP : Off ]

cron