img image001 image001 image001 image001 image001 image001 image001 image001 image001 image001 image001 image001 image001 image001 image001 image001
Planets Sun Sun Sun
Статистика раздачи
Автор: Nickolas3434 | Размер: 1.72 ГБ | Добавлен: 15 янв 2018
Раздают: 0    Качают: 0
Скачать торрент
Скачать торрент
Описание торрента

СообщениеДобавлено: 15 янв 2018 

Год выпуска: 2016
Оригинальное название: Quo vado?
Страна: Италия
Жанр: комедия
Возраст: 16+
Режиссер: Дженнаро Нунцианте
В ролях: Кекко Дзалоне, Элеонора Джованарди, Соня Бергамаско, Маурицио Микели, Лино Банфи, Людовика Модуньо, Антонино Брускетта, Паоло Пьеробон, Азурра Мартино
Описание: 15 лет верой и правдой служил Кекко своему народу — с утра до ночи, не жалея сил, просиживал штаны в Управлении охоты и рыболовства. Положение, зарплата, куча бонусов, включая милые подарки от посетителей: не жизнь, а сказка. Но пришла беда, откуда не ждали, — в министерстве решили сократить штаты, предложив чиновникам хорошее выходное пособие. Ну, а тем, кто заартачится — добро пожаловать в командировку «к черту на рога». Упрямец Кекко не захотел расставаться с дорогой его сердцу госслужбой — и начался полный приключений период в жизни бюрократа-бездельника. Уж чего только реформаторы не придумывали, чтобы от него избавиться, в какие только медвежьи углы Италии его не посылали — всё бестолку. И тогда министерские изверги отправили Кекко на Северный полюс, думали — в наказание, а оказалось — навстречу сумасшедшей любви.
Продолжительность: 01:27:40
Перевод: Дублированный [iTunes]
Оригинальная дорожка: нет
Релиз от:
Качество видео: BDRip 720p Исходник: Blu-Ray Remux (1080p) Формат: mp4
Видео кодек: MPEG-4 AVC Аудио кодек: AAC
Видео: 1280x534 (2.40:1) at 24.000 fps, AVC at 2 636 kbps avg, 0.161 bit/pixel
Аудио №1 Rus: 48.0 KHz, AAC, 2 ch, 160.0 Kbps
Субтитры: нет
Навигация по главам: есть
Размер: 1.72 GiB
avs [info]: 1280x534p 1:1 @ 24/1 fps (cfr)
x264 [info]: using SAR=1/1
x264 [info]: using cpu capabilities: MMX2 SSE2Fast SSSE3 Cache64
x264 [info]: profile High, level 4.1
264 [info]: frame I:1334 Avg QP:15.97 size:115148
x264 [info]: frame P:26942 Avg QP:19.30 size: 33082
x264 [info]: frame B:97958 Avg QP:22.30 size: 7024
x264 [info]: consecutive B-frames: 1.8% 1.8% 8.1% 23.3% 19.7% 36.2% 4.7% 2.9% 1.5%
x264 [info]: mb I I16..4: 6.8% 69.3% 23.8%
x264 [info]: mb P I16..4: 1.5% 7.6% 1.3% P16..4: 45.5% 19.3% 17.9% 1.0% 0.4% skip: 5.7%
x264 [info]: mb B I16..4: 0.1% 0.5% 0.1% B16..8: 40.0% 7.1% 1.9% direct: 4.1% skip:46.2% L0:42.4% L1:45.2% BI:12.4%
x264 [info]: 8x8 transform intra:71.8% inter:66.6%
x264 [info]: coded y,uvDC,uvAC intra: 75.5% 86.2% 64.1% inter: 18.4% 26.0% 5.1%
x264 [info]: i16 v,h,dc,p: 36% 21% 7% 37%
x264 [info]: i8 v,h,dc,ddl,ddr,vr,hd,vl,hu: 23% 16% 17% 5% 8% 8% 8% 8% 8%
x264 [info]: i4 v,h,dc,ddl,ddr,vr,hd,vl,hu: 27% 16% 11% 6% 9% 9% 8% 7% 6%
x264 [info]: i8c dc,h,v,p: 47% 20% 23% 10%
x264 [info]: Weighted P-Frames: Y:4.2% UV:2.6%
x264 [info]: ref P L0: 50.6% 14.5% 15.1% 6.0% 4.7% 3.6% 3.2% 2.2% 0.1% 0.0%
x264 [info]: ref B L0: 81.7% 8.6% 4.5% 2.1% 1.6% 1.1% 0.4%
x264 [info]: ref B L1: 95.7% 4.3%
x264 [info]: kb/s:2635.77
encoded 126234 frames, 4.37 fps, 2635.77 kb/s

General
Complete name : ...K-chertu-na-roga-2016_KinoGadget.mp4
Format : MPEG-4
Format profile : Base Media
Codec ID : isom (isom)
File size : 1.72 GiB
Duration : 1 h 27 min
Overall bit rate mode : Variable
Overall bit rate : 2 803 kb/s
Movie name : К черту на рога | KinoGadget
Performer : Дженнаро Нунцианте
Director : Дженнаро Нунцианте
Actor : Кекко Дзалоне / Элеонора Джованарди / Соня Бергамаско / Маурицио Микели / Лино Банфи / Людовика Модуньо / Антонино Брускетта / Паоло Пьеробон / Азурра Мартино
Screenplay by : Дженнаро Нунцианте / Кекко Дзалоне
Producer : Пьетро Вальсекки
Genre : Comedy
ContentType : Short Film
Recorded date : 2016
Encoded date : UTC 2018-01-13 08:17:16
Tagged date : UTC 2018-01-13 08:48:26
Cover : Yes
ContentRating : mpaa|PG-13|300|
LongDeion : 15 лет верой и правдой служил Кекко своему народу — с утра до ночи, не жалея сил, просиживал штаны в Управлении охоты и рыболовства. Положение, зарплата, куча бонусов, включая милые подарки от посетителей: не жизнь, а сказка. Но пришла беда, откуда не ждали, — в министерстве решили сократить штаты, предложив чиновникам хорошее выходное пособие. Ну, а тем, кто заартачится — добро пожаловать в командировку «к черту на рога».
HDVideo : Yes
Video
ID : 1
Format : AVC
Format/Info : Advanced Video Codec
Format profile : [email protected]
Format settings : CABAC / 8 Ref Frames
Format settings, CABAC : Yes
Format settings, ReFrames : 8 frames
Codec ID : avc1
Codec ID/Info : Advanced Video Coding
Duration : 1 h 27 min
Bit rate : 2 636 kb/s
Maximum bit rate : 11.2 Mb/s
Width : 1 280 pixels
Height : 534 pixels
Display aspect ratio : 2.40:1
Frame rate mode : Constant
Frame rate : 24.000 FPS
Color space : YUV
Chroma subsampling : 4:2:0
Bit depth : 8 bits
Scan type : Progressive
Bits/(Pixel*Frame) : 0.161
Stream size : 1.61 GiB (94%)
Writing library : x264 core 152 r2851 ba24899
Encoding settings : cabac=1 / ref=8 / deblock=1:-2:-1 / analyse=0x3:0x133 / me=umh / subme=7 / psy=1 / psy_rd=1.00:0.00 / mixed_ref=1 / me_range=32 / chroma_me=1 / trellis=2 / 8x8dct=1 / cqm=0 / deadzone=21,11 / fast_pskip=0 / chroma_qp_offset=-2 / threads=3 / lookahead_threads=1 / sliced_threads=0 / nr=0 / decimate=1 / interlaced=0 / bluray_compat=0 / constrained_intra=0 / bframes=8 / b_pyramid=2 / b_adapt=2 / b_bias=0 / direct=1 / weightb=1 / open_gop=0 / weightp=2 / keyint=250 / keyint_min=25 / scenecut=40 / intra_refresh=0 / rc_lookahead=60 / rc=crf / mbtree=1 / crf=19.0 / qcomp=0.60 / qpmin=0 / qpmax=69 / qpstep=4 / vbv_maxrate=62500 / vbv_bufsize=78125 / crf_max=0.0 / nal_hrd=none / filler=0 / ip_ratio=1.40 / aq=1:1.00
Encoded date : UTC 2018-01-13 02:24:13
Tagged date : UTC 2018-01-13 08:20:17
Audio
ID : 2
Format : AAC
Format/Info : Advanced Audio Codec
Format profile : LC
Codec ID : mp4a-40-2
Duration : 1 h 27 min
Bit rate mode : Variable
Bit rate : 160 kb/s
Maximum bit rate : 168 kb/s
Channel(s) : 2 channels
Channel positions : Front: L R
Sampling rate : 48.0 kHz
Frame rate : 46.875 FPS (1024 SPF)
Compression mode : Lossy
Stream size : 100 MiB (6%)
Language : Russian
Encoded date : UTC 2018-01-13 02:32:14
Tagged date : UTC 2018-01-13 08:20:17
Menu
00:00:00.000 : Chapter 01
00:07:21.416 : Chapter 02
00:14:08.000 : Chapter 03
00:22:55.541 : Chapter 04
00:28:12.250 : Chapter 05
00:34:39.125 : Chapter 06
00:44:20.666 : Chapter 07
00:50:22.833 : Chapter 08
00:56:45.833 : Chapter 09
01:04:11.833 : Chapter 10
01:14:30.416 : Chapter 11
01:19:18.583 : Chapter 12



Данный рип предназначен для просмотра на мобильных гаджетах с поддержкой формата mp4



   Похожие торренты   Торрент   Размер 
В этой теме нет новых непрочитанных сообщений. К черту на рога / Quo vado? (2016) BDRip 720p | D | iTunes

49 | 1

3.91 ГБ

В этой теме нет новых непрочитанных сообщений. К черту на рога / Quo vado? (2016) BDRip 1080p | iTunes

29 | 0

7.09 ГБ

В этой теме нет новых непрочитанных сообщений. К чёрту на рога / Quo vado? (2016) HDRip-AVC | iTunes

36 | 3

2.18 ГБ

В этой теме нет новых непрочитанных сообщений. К черту на рога / Quo vado? (2016) HDRip-AVC | iTunes

0 | 0

749.92 МБ

В этой теме нет новых непрочитанных сообщений. К черту на рога / Quo vado? (2016) HDRip от MegaPeer | iTunes

29 | 2

745.48 МБ

В этой теме нет новых непрочитанных сообщений. К чёрту на рога / Quo vado? (2016) HDRip от Scarabey | iTunes

1269 | 25

1.41 ГБ

В этой теме нет новых непрочитанных сообщений. К чёрту на рога / Quo vado? (2016) HDRip от Scarabey | iTunes

16 | 0

746.23 МБ




Вы не можете начинать темы
Вы не можете отвечать на сообщения
Вы не можете редактировать свои сообщения
Вы не можете удалять свои сообщения
Вы не можете добавлять вложения

Перейти:  
Для Мосгорсуда, Роскомнадзора и рекламодателей: mosgorsud-torrent[собачка]yandex.ru
 Вход
ppkBB3cker v.2 © 2008-2014 @ PPK
[ Time : 0.054s | 19 Queries | GZIP : Off ]

cron