img image001 image001 image001 image001 image001 image001 image001 image001 image001 image001 image001 image001 image001 image001 image001
Planets Sun Sun Sun
Статистика раздачи
Автор: Nickolas3434 | Размер: 5.7 ГБ | Добавлен: 15 янв 2018
Раздают: 0    Качают: 0
Скачать торрент
Скачать торрент
Описание торрента

СообщениеДобавлено: 15 янв 2018 

Новый парень моей мамы / My Mom's New Boyfriend

Страна: Германия, США
Жанр: боевик, триллер, комедия, мелодрама
Год выпуска: 2008
Продолжительность: 01:37:01
Перевод: Профессиональный (дублированный)
Перевод 2: Профессиональный (двухголосый закадровый)
Перевод 3: Украинский: Профессиональный (двухголосый закадровый) - 2+2
Субтитры: русские, английские
Оригинальная аудиодорожка: английский
Режиссер: Джордж Галло / George Gallo
В ролях: Антонио Бандерас, Мег Райан , Колин Хэнкс, Селма Блэр, Тревор Морган, John Valdetero, Эли Данкер, Том Адамс, Кит Дэвид, Энрико Колантони и другие
Описание: Юный агент ФБР Генри, выполняя очередное задание, покидает родной дом на три года, оставляя в гордом одиночестве свою полную одинокую мамашу Марту. В следующий раз, когда он ее увидит, она уже предстанет перед ним в образе прекрасной разбитной блондинки Марти, которая намерена в последние годы уходящей молодости взять от жизни все.
И в своих стремлениях она, не зная тормозов, заводит романы направо и налево, не гнушаясь ни лысыми итальянскими поварами, ни безусыми юнцами на мотоциклах. От всего происходящего у Генри идет кругом голова, но окончательно почва уйдет у него из-под ног в тот момент, когда Марти повстречает некоего Томми, а Генри на летучке в ФБР прикажут следить за новым ухажером, ввиду широкой известности последнего в Интерполе.


Тип релиза: BDRip 720p
Контейнер: MKV
Видео: 1280x532 (2.40:1), 24.000 fps, AVC, ~5845 Kbps, 0.358 bits/pixel
Аудио: Russian, 48.0 KHz, AC3, 6 ch, 448 Kbps - Дубляж
Аудио 2: Russian, 48.0 KHz, AC3, 6 ch, 448 Kbps - Двухголосый закадровый
Аудио 3: Ukrainian, 48.0 KHz, AC3, 2 ch, 192 Kbps - Двухголосый закадровый - 2+2
Аудио 4: English, 48.0 KHz, DTS, 6 ch, 1510 Kbps - original
Формат субтитров: softsub (SRT)
Сэмпл: http://yadi.sk/i/0jPQ06Lo3R9uJj
Общее
Уникальный идентификатор : 251003597396385625524075836408293819910 (0xBCD588D0E4BBCDDD87050D4A27B50606)
Полное имя : D:ФільмиФільми 1080рNovy'y.Paren'.Moey.Mamy'.2008.RUS.BDRip.XviD.AC3.-HQCLUBMy Mom's New Boyfriend.2008.720p.BluRay.2xRus.Ukr.Eng.HDCLUB.mkv
Формат : Matroska
Версия формата : Version 4 / Version 2
Размер файла : 5,70 Гбайт
Продолжительность : 1 ч. 37 м.
Общий поток : 8410 Кбит/сек
Название фильма : My Mom's New Boyfriend (2008) - Release for HDCLUB by sender
Дата кодирования : UTC 2018-01-02 05:03:02
Программа кодирования : mkvmerge v7.9.0 ('Birds') 64bit
Библиотека кодирования : libebml v1.3.1 + libmatroska v1.4.2
Видео
Идентификатор : 1
Формат : AVC
Формат/Информация : Advanced Video Codec
Профиль формата : [email protected]
Параметр CABAC формата : Да
Параметр RefFrames формата : 10 кадров
Идентификатор кодека : V_MPEG4/ISO/AVC
Продолжительность : 1 ч. 36 м.
Битрейт : 5845 Кбит/сек
Ширина : 1280 пикселей
Высота : 532 пикселя
Соотношение сторон : 2,40:1
Режим частоты кадров : Постоянный
Частота кадров : 24,000 кадра/сек
Цветовое пространство : YUV
Субдискретизация насыщенности : 4:2:0
Битовая глубина : 8 бит
Тип развёртки : Прогрессивная
Бит/(Пиксели*Кадры) : 0.358
Размер потока : 3,95 Гбайт (69%)
Заголовок : Release for HDCLUB
Библиотека кодирования : x264 core 80 r1376M 3feaec2
Настройки программы : cabac=1 / ref=11 / deblock=1:-3:-3 / analyse=0x3:0x113 / me=umh / subme=9 / psy=1 / psy_rd=1.0:0.1 / mixed_ref=1 / me_range=32 / chroma_me=1 / trellis=2 / 8x8dct=1 / cqm=0 / deadzone=21,11 / fast_pskip=0 / chroma_qp_offset=-3 / threads=3 / sliced_threads=0 / nr=0 / decimate=0 / mbaff=0 / constrained_intra=0 / bframes=7 / b_pyramid=1 / b_adapt=2 / b_bias=0 / direct=3 / wpredb=1 / wpredp=2 / keyint=250 / keyint_min=25 / scenecut=40 / rc=2pass / mbtree=0 / bitrate=5845 / ratetol=1.0 / qcomp=0.60 / qpmin=10 / qpmax=51 / qpstep=4 / cplxblur=20.0 / qblur=0.5 / ip_ratio=1.40 / pb_ratio=1.30 / aq=1:1.00
Язык : English
Default : Да
Forced : Нет
Аудио #1
Идентификатор : 2
Формат : AC-3
Формат/Информация : Audio Coding 3
Параметр Endianness формата : Big
Идентификатор кодека : A_AC3
Продолжительность : 1 ч. 36 м.
Вид битрейта : Постоянный
Битрейт : 448 Кбит/сек
Каналы : 6 каналов
Расположение каналов : Front: L C R, Side: L R, LFE
Частота : 48,0 КГц
Частота кадров : 31,250 кадров/сек (1536 SPF)
Битовая глубина : 16 бит
Метод сжатия : С потерями
Размер потока : 311 Мбайт (5%)
Заголовок : Дубляж
Язык : Russian
ServiceKind/String : Complete Main
Default : Да
Forced : Нет
Аудио #2
Идентификатор : 3
Формат : AC-3
Формат/Информация : Audio Coding 3
Параметр Endianness формата : Big
Идентификатор кодека : A_AC3
Продолжительность : 1 ч. 31 м.
Вид битрейта : Постоянный
Битрейт : 448 Кбит/сек
Каналы : 6 каналов
Расположение каналов : Front: L C R, Side: L R, LFE
Частота : 48,0 КГц
Частота кадров : 31,250 кадров/сек (1536 SPF)
Битовая глубина : 16 бит
Метод сжатия : С потерями
Размер потока : 293 Мбайт (5%)
Заголовок : Двухголосый закадровый
Язык : Russian
ServiceKind/String : Complete Main
Default : Нет
Forced : Нет
Аудио #3
Идентификатор : 4
Формат : AC-3
Формат/Информация : Audio Coding 3
Параметр Endianness формата : Big
Идентификатор кодека : A_AC3
Продолжительность : 1 ч. 37 м.
Вид битрейта : Постоянный
Битрейт : 192 Кбит/сек
Каналы : 2 канала
Расположение каналов : Front: L R
Частота : 48,0 КГц
Частота кадров : 31,250 кадров/сек (1536 SPF)
Битовая глубина : 16 бит
Метод сжатия : С потерями
Размер потока : 133 Мбайт (2%)
Заголовок : Двухголосый закадровый - 2+2
Язык : Ukrainian
ServiceKind/String : Complete Main
Default : Нет
Forced : Нет
Аудио #4
Идентификатор : 5
Формат : DTS
Формат/Информация : Digital Theater Systems
Режим : 16
Параметр Endianness формата : Big
Идентификатор кодека : A_DTS
Продолжительность : 1 ч. 37 м.
Вид битрейта : Постоянный
Битрейт : 1509 Кбит/сек
Каналы : 6 каналов
Расположение каналов : Front: L C R, Side: L R, LFE
Частота : 48,0 КГц
Частота кадров : 93,750 кадра/сек (512 SPF)
Битовая глубина : 16 бит
Метод сжатия : С потерями
Размер потока : 1,02 Гбайт (18%)
Заголовок : DTS 5.1 @ 1536 kbps
Язык : English
Default : Нет
Forced : Нет
Текст #1
Идентификатор : 6
Формат : UTF-8
Идентификатор кодека : S_TEXT/UTF8
Идентификатор кодека/Информация : UTF-8 Plain Text
Продолжительность : 1 ч. 36 м.
Битрейт : 90 бит/сек
ElementCount : 1338
Размер потока : 64,3 Кбайт (0%)
Язык : Russian
Default : Да
Forced : Нет
Текст #2
Идентификатор : 7
Формат : UTF-8
Идентификатор кодека : S_TEXT/UTF8
Идентификатор кодека/Информация : UTF-8 Plain Text
Продолжительность : 1 ч. 30 м.
Битрейт : 64 бит/сек
ElementCount : 1442
Размер потока : 42,7 Кбайт (0%)
Язык : English
Default : Нет
Forced : Нет
Меню
00:00:00.000 : :CHAPTER01
00:03:45.708 : :CHAPTER02
00:06:23.125 : :CHAPTER03
00:09:39.750 : :CHAPTER04
00:16:01.291 : :CHAPTER05
00:20:25.708 : :CHAPTER06
00:27:09.208 : :CHAPTER07
00:32:08.125 : :CHAPTER08
00:41:41.708 : :CHAPTER09
00:45:01.666 : :CHAPTER10
00:52:13.000 : :CHAPTER11
00:59:43.291 : :CHAPTER12
01:04:38.375 : :CHAPTER13
01:09:24.791 : :CHAPTER14
01:20:58.375 : :CHAPTER15
01:30:33.625 : :CHAPTER16




   Похожие торренты   Торрент   Размер 
В этой теме нет новых непрочитанных сообщений. Новый парень моей мамы / My Mom's New Boyfriend (2008) BDRip 720p от NOLIMITS-TEAM

10 | 5

2.2 ГБ

В этой теме нет новых непрочитанных сообщений. Новый парень моей мамы / My Mom's New Boyfriend (2008) BDRip от HQCLUB

39 | 7

1.71 ГБ

В этой теме нет новых непрочитанных сообщений. Новый Парень Моей Мамы / My Mom's New Boyfriend (2008) BDRip от HQ-ViDEO

32 | 2

1.46 ГБ

В этой теме нет новых непрочитанных сообщений. Новый парень моей мамы / My Mom's New Boyfriend (2008) BDRip 1080p от FreeHD

8 | 4

7.94 ГБ

В этой теме нет новых непрочитанных сообщений. Новый парень моей мамы / My Mom's New Boyfriend (2008) HDRip

48 | 6

742.74 МБ

В этой теме нет новых непрочитанных сообщений. Новый парень моей мамы / My Mom's New Boyfriend (2008) Remux 1080p | D, P2

9 | 3

16.7 ГБ

В этой теме нет новых непрочитанных сообщений. Новый парень моей мамы / My Mom's New Boyfriend (2008) HDTVRip-AVC | D | Open Matte

29 | 2

1.39 ГБ




Вы не можете начинать темы
Вы не можете отвечать на сообщения
Вы не можете редактировать свои сообщения
Вы не можете удалять свои сообщения
Вы не можете добавлять вложения

Перейти:  
Для Мосгорсуда, Роскомнадзора и рекламодателей: mosgorsud-torrent[собачка]yandex.ru
 Вход
ppkBB3cker v.2 © 2008-2014 @ PPK
[ Time : 0.062s | 21 Queries | GZIP : Off ]

cron