img image001 image001 image001 image001 image001 image001 image001 image001 image001 image001 image001 image001 image001 image001 image001 image001
Planets Sun Sun Sun
Статистика раздачи
Автор: Nickolas3434 | Размер: 746.83 МБ | Добавлен: 15 янв 2018
Раздают: 18    Качают: 3
Скачать торрент
Скачать торрент
Описание торрента

СообщениеДобавлено: 15 янв 2018 

Информация о фильме
Название: Незваные Гости
Оригинальное название: Wedding Crashers
Год выхода: 2005
Жанр: Комедия, мелодрама
Режиссер: Дэвид Добкин
В ролях: Оуэн Уилсон, Винс Вон, Кристофер Уокен, Рэйчел МакАдамс, Айла Фишер, Джейн Сеймур, Эллен Альбертини Дау, Кейр О’Доннелл, Брэдли Купер, Рон Кэнада, Генри Гибсон, Дуайт Йоакам, Ребекка Де Морнэй, Дэвид Конрад, Дженни Элден, Джофф Стульц, Джеймс МакДоннел, Джесси Хенеке, Лу Кателл, Спаркл, Фрэнк Рэй Перилли, Патриция Плэйс, Чао Ли Чи, Норма Майклс, Ноэль Де Соуза, Ивана Бозилович, Камилла Андерсон, Рэйчел Стерлинг, Диора Бэрд, Нед Шмидтке, Дженнифер Мэсси, Дилан Джеймс Тернер, Ларри Джо Кэмпбелл, Ирен Росин, Карен Миллер, Таная Николь, Норин Займ, Синди Тейлор, Уилл Феррелл
О фильме :
История о бесшабашных приключениях двух заядлых холостяков: Джона и Джереми, которые изобрели потрясающий способ знакомства с девушками. Они придумывают себе «легенды», проникают на чужие свадьбы и получают удовольствие от бесплатной еды, шампанского и множества красивых женщин, которые готовы на все, чтобы найти себе мужа. Но лучшая часть плана — это вовремя исчезнуть под утро, дабы дама сердца не успела намекнуть на какие-либо обязательства. Только вся эта тактика умных бабников летит в тартарары, когда Джон неожиданно для самого себя влюбляется. Завоевать сердце любимой, значит пойти на крайний шаг: ворваться на свадьбу и украсть невесту...

Выпущено: США, Avery Pix, New Line Cinema, Tapestry Films
Продолжительность: 02:07:00
Перевод: Профессиональный (полное дублирование) + вставки многоголоски Tycoon-Studio на расширенные эпизоды.
Файл
Формат: MKV
Качество: HDRip-AVC
Видео: MPEG-4 AVC, 752x320, ~ 744 Кбит/с
Аудио: AAC-LC, 2 ch, ~ 76 Кбит/с
Субтитры: Русские
Общее
Уникальный идентификатор : 215859824586571002195610093887881136313 (0xA2651709FCC4E7CCAD6B7FFA0436C8B9)
Полное имя : D:MOVIESNezvanye Gosti.2005.ExKinoRay.mkv
Формат : Matroska
Версия формата : Version 4 / Version 2
Размер файла : 747 Мбайт
Продолжительность : 2 ч. 7 м.
Общий поток : 822 Кбит/сек
Дата кодирования : UTC 2018-01-14 11:42:39
Программа кодирования : mkvmerge v15.0.0 ('Duel with the Devil') 64-bit
Библиотека кодирования : libebml v1.3.5 + libmatroska v1.4.5
Видео
Идентификатор : 1
Формат : AVC
Формат/Информация : Advanced Video Codec
Профиль формата : [email protected]
Параметр CABAC формата : Да
Параметр RefFrames формата : 10 кадров
Идентификатор кодека : V_MPEG4/ISO/AVC
Продолжительность : 2 ч. 7 м.
Битрейт : 744 Кбит/сек
Ширина : 752 пикселя
Высота : 320 пикселей
Соотношение сторон : 2,35:1
Режим частоты кадров : Постоянный
Частота кадров : 23,976 (24000/1001) кадра/сек
Цветовое пространство : YUV
Субдискретизация насыщенности : 4:2:0
Битовая глубина : 8 бит
Тип развёртки : Прогрессивная
Бит/(Пиксели*Кадры) : 0.129
Размер потока : 676 Мбайт (90%)
Библиотека кодирования : x264 core 152 r2851 ba24899
Настройки программы : cabac=1 / ref=10 / deblock=1:-3:-3 / analyse=0x3:0x133 / me=umh / subme=11 / psy=1 / psy_rd=1.00:0.10 / mixed_ref=1 / me_range=32 / chroma_me=1 / trellis=2 / 8x8dct=1 / cqm=0 / deadzone=21,11 / fast_pskip=0 / chroma_qp_offset=-3 / threads=6 / lookahead_threads=1 / sliced_threads=0 / nr=0 / decimate=0 / interlaced=0 / bluray_compat=0 / constrained_intra=0 / bframes=10 / b_pyramid=2 / b_adapt=2 / b_bias=0 / direct=3 / weightb=1 / open_gop=0 / weightp=2 / keyint=240 / keyint_min=23 / scenecut=40 / intra_refresh=0 / rc_lookahead=40 / rc=2pass / mbtree=0 / bitrate=744 / ratetol=1.0 / qcomp=0.60 / qpmin=0 / qpmax=69 / qpstep=4 / cplxblur=20.0 / qblur=0.5 / vbv_maxrate=50000 / vbv_bufsize=62500 / nal_hrd=none / filler=0 / ip_ratio=1.40 / pb_ratio=1.30 / aq=1:1.00
Default : Да
Forced : Нет
Аудио
Идентификатор : 2
Формат : AAC
Формат/Информация : Advanced Audio Codec
Профиль формата : LC
Идентификатор кодека : A_AAC
Продолжительность : 2 ч. 7 м.
Битрейт : 76,0 Кбит/сек
Каналы : 2 канала
Расположение каналов : Front: L R
Частота : 48,0 КГц
Частота кадров : 46,875 кадров/сек (1024 SPF)
Метод сжатия : С потерями
Задержка видео : 9 мс.
Размер потока : 69,0 Мбайт (9%)
Default : Да
Forced : Нет
Текст
Идентификатор : 3
Формат : UTF-8
Идентификатор кодека : S_TEXT/UTF8
Идентификатор кодека/Информация : UTF-8 Plain Text
Продолжительность : 2 ч. 0 м.
Битрейт : 118 бит/сек
ElementCount : 2107
Размер потока : 105 Кбайт (0%)
Язык : Russian
Default : Нет
Forced : Нет
Меню
00:00:00.000 : en:00:00:00.000
00:03:39.553 : en:00:03:39.553
00:15:24.966 : en:00:15:24.966
00:23:46.800 : en:00:23:46.800
00:39:10.765 : en:00:39:10.765
00:44:01.222 : en:00:44:01.222
00:49:20.082 : en:00:49:20.082
00:52:51.043 : en:00:52:51.043
00:59:12.591 : en:00:59:12.591
01:06:22.645 : en:01:06:22.645
01:12:01.317 : en:01:12:01.317
01:19:05.157 : en:01:19:05.157
01:21:56.078 : en:01:21:56.078
01:26:19.508 : en:01:26:19.508
01:28:52.953 : en:01:28:52.953
01:35:18.588 : en:01:35:18.588
01:41:07.520 : en:01:41:07.520
01:47:54.885 : en:01:47:54.885
01:53:19.126 : en:01:53:19.126
02:00:49.617 : en:02:00:49.617



Релиз от:



   Похожие торренты   Торрент   Размер 
В этой теме нет новых непрочитанных сообщений. Незваные гости / Wedding Crashers (2005) HDRip | Uncorked

210 | 13

1.44 ГБ

В этой теме нет новых непрочитанных сообщений. Незваные Гости / Wedding Crashers (2005) HDRip от Scarabey | D | Театральная версия

137 | 4

1.45 ГБ

В этой теме нет новых непрочитанных сообщений. Незваные гости / Wedding Crashers (2005) HDRip от Scarabey | Раскупоренная версия

97 | 11

1.45 ГБ

В этой теме нет новых непрочитанных сообщений. Незваные гости / Wedding Crashers (2005) HDRip от Scarabey | Раскупоренная версия

48 | 7

2.17 ГБ

В этой теме нет новых непрочитанных сообщений. Незваные Гости / Wedding Crashers (2005) HDRip от Scarabey | D | Театральная версия

20 | 4

743.43 МБ

В этой теме нет новых непрочитанных сообщений. Незваные гости / Wedding Crashers (2005) HDRip от Scarabey | Раскупоренная версия

20 | 8

768.58 МБ

В этой теме нет новых непрочитанных сообщений. Незваные гости / Wedding Crashers (2005) BDRip от HQ-ViDEO

19 | 4

2.18 ГБ




Вы не можете начинать темы
Вы не можете отвечать на сообщения
Вы не можете редактировать свои сообщения
Вы не можете удалять свои сообщения
Вы не можете добавлять вложения

Перейти:  
Для Мосгорсуда, Роскомнадзора и рекламодателей: mosgorsud-torrent[собачка]yandex.ru
 Вход
ppkBB3cker v.2 © 2008-2014 @ PPK
[ Time : 0.029s | 19 Queries | GZIP : Off ]

cron