img image001 image001 image001 image001 image001 image001 image001 image001 image001 image001 image001 image001 image001 image001 image001
Planets Sun Sun Sun
Статистика раздачи
Автор: Nickolas3434 | Размер: 734.73 МБ | Добавлен: 15 янв 2018
Раздают: 30    Качают: 3
Скачать торрент
Скачать торрент
Описание торрента

СообщениеДобавлено: 15 янв 2018 

Информация о фильме
Название: Дорога апокалипсиса
Оригинальное название: Apocalypse Road
Год выхода: 2016
Жанр: ужасы
Режиссер: Брент Бентман
В ролях: Тодд Дженкинс, Том Зэмброд, Тони Сензамици, Нелли Скиутто, Стив Хименез, Билли Блэр, Эндрю Аррасмит, Билли Николас, Тиффани Хит, Лэнс Де Лос Сантос, Таня Кристиансен, Эшлин МакИверс, Кэти Боттчер, Кэти Кохлер
О фильме:
Фильм рассказывает о двух сёстрах, которые потеряли друг друга во время постапокалиптической депрессии.
Доп. информация
Самое страшное не то, что весь бюджет ушел в постер, а то что фильм имел кассовый успех среди друзей и соседей режиссера. После 15 никому неизвестных короткометражек, Брент Бентман, вдохновленный успехом первого полнометражного фильме, в 2018 году, решил выпустить вторую часть нашумевшего, на своей улице, блокбастера. Так что, смотреть в ознакомительных целях.


Страна: США
Продолжительность: 01:27:00
Перевод: Любительский (одноголосый) Хихикающий доктор
Файл
Формат: MKV
Качество: WEBRip-AVC
Видео: 960x480 (2.40:1), 25.000 fps, [email protected] ~955 kbps avg, 0.083 bit/pixel
Звук1: 44.100 kHz, MPEG Layer 3, 2 ch, ~192.00 kbps avg
Трейлер
Небольшая реклама в титрах

Format : Matroska
Format version : Version 4 / Version 2
File size : 735 MiB
Duration : 1h 27mn
Overall bit rate : 1 170 Kbps
Encoded date : UTC 2018-01-04 13:15:42
Writing application : mkvmerge v15.0.0 ('Duel with the Devil') 64-bit
Writing library : libebml v1.3.5 + libmatroska v1.4.5
DURATION : 01:27:45.711000000
NUMBER_OF_FRAMES : 201578
NUMBER_OF_BYTES : 126377064
_STATISTICS_WRITING_APP : mkvmerge v15.0.0 ('Duel with the Devil') 64-bit
_STATISTICS_WRITING_DATE_UTC : 2018-01-04 13:15:42
_STATISTICS_TAGS : BPS DURATION NUMBER_OF_FRAMES NUMBER_OF_BYTES
Video
ID : 1
Format : AVC
Format/Info : Advanced Video Codec
Format profile : [email protected]
Format settings, CABAC : Yes
Format settings, ReFrames : 3 frames
Codec ID : V_MPEG4/ISO/AVC
Duration : 1h 27mn
Bit rate : 955 Kbps
Width : 960 pixels
Height : 480 pixels
Display aspect ratio : 2.000
Frame rate mode : Constant
Frame rate : 25.000 fps
Color space : YUV
Chroma subsampling : 4:2:0
Bit depth : 8 bits
Scan type : Progressive
Bits/(Pixel*Frame) : 0.083
Stream size : 600 MiB (82%)
Writing library : x264 core 152
Encoding settings : cabac=1 / ref=3 / deblock=1:0:0 / analyse=0x1:0x111 / me=hex / subme=7 / psy=1 / psy_rd=1.00:0.00 / mixed_ref=1 / me_range=16 / chroma_me=1 / trellis=1 / 8x8dct=0 / cqm=0 / deadzone=21,11 / fast_pskip=1 / chroma_qp_offset=-2 / threads=12 / lookahead_threads=2 / sliced_threads=0 / nr=0 / decimate=1 / interlaced=0 / bluray_compat=0 / constrained_intra=0 / bframes=3 / b_pyramid=1 / b_adapt=1 / b_bias=0 / direct=1 / weightb=1 / open_gop=0 / weightp=2 / keyint=250 / keyint_min=25 / scenecut=40 / intra_refresh=0 / rc_lookahead=40 / rc=crf / mbtree=1 / crf=22.0 / qcomp=0.60 / qpmin=10 / qpmax=51 / qpstep=4 / ip_ratio=1.41 / aq=1:1.00
Default : Yes
Forced : No
Audio
ID : 2
Format : MPEG Audio
Format version : Version 1
Format profile : Layer 3
Codec ID : A_MPEG/L3
Codec ID/Hint : MP3
Duration : 1h 27mn
Bit rate mode : Constant
Bit rate : 192 Kbps
Channel(s) : 2 channels
Sampling rate : 44.1 KHz
Compression mode : Lossy
Stream size : 121 MiB (16%)
Default : Yes
Forced : No



   Похожие торренты   Торрент   Размер 
В этой теме нет новых непрочитанных сообщений. Страж апокалипсиса / Патрульные апокалипсиса / The Apocalypse Watch (1997) DVDRip от Youtracker | P

11 | 4

1.69 ГБ

В этой теме нет новых непрочитанных сообщений. Багровые реки 2: Ангелы апокалипсиса / Crimson Rivers 2: Angels of the Apocalypse / Les rivières pourpres II - Les anges de l'apocalypse (2004) HDRip

0 | 5

744.37 МБ

В этой теме нет новых непрочитанных сообщений. Дорога Черной Смолы / Black Tar Road (2016) WEBRip | L

18 | 0

1.37 ГБ

В этой теме нет новых непрочитанных сообщений. Дорога на Эльдорадо / The Road to El Dorado (2000) WEBRip 1080p | D, P, A

43 | 4

6.6 ГБ

В этой теме нет новых непрочитанных сообщений. Ниндзя Апокалипсиса / Ninja Apocalypse (2014) HDRip | L1

3784 | 337

1.46 ГБ

В этой теме нет новых непрочитанных сообщений. Воины апокалипсиса / Warriors of the Apocalypse (1985) VHSRip

179 | 4

831.34 МБ

В этой теме нет новых непрочитанных сообщений. Четыре всадника Апокалипсиса / Four Of The Apocalypse (1975) DVDRip от Кинорадиомагия

103 | 22

2.05 ГБ




Вы не можете начинать темы
Вы не можете отвечать на сообщения
Вы не можете редактировать свои сообщения
Вы не можете удалять свои сообщения
Вы не можете добавлять вложения

Перейти:  
Для Мосгорсуда, Роскомнадзора и рекламодателей: mosgorsud-torrent[собачка]yandex.ru
 Вход
ppkBB3cker v.2 © 2008-2014 @ PPK
[ Time : 2.463s | 19 Queries | GZIP : Off ]

cron