img image001 image001 image001 image001 image001 image001 image001 image001 image001 image001 image001 image001 image001 image001 image001
Planets Sun Sun Sun
Статистика раздачи
Автор: Nickolas3434 | Размер: 744.14 МБ | Добавлен: 15 янв 2018
Раздают: 22    Качают: 3
Скачать торрент
Скачать торрент
Описание торрента

СообщениеДобавлено: 15 янв 2018 

Информация о фильме
Название: День матери
Оригинальное название: Mother's Day
Год выхода: 2010
Жанр: Ужасы, триллер
Режиссер: Даррен Линн Боусман
В ролях: Ребекка Де Морнэй, Джейми Кинг, Патрик Флюгер, Уоррен Коул, Дебора Энн Уолл, Бриана Эвиган, Шон Эшмор, Фрэнк Грилло, Лиза Маркос, Мэтью О’Лири
О фильме :
После провального ограбления банка, три брата возвращаются домой и обнаруживают, что в доме проживают другие люди. Новые владельцы и их гости, которые собрались по случаю дня рождения, становятся невольными заложниками братьев. Вскоре объявляется мать нерадивых братьев, которая крайне обеспокоена судьбой сыновей и ей крайне не терпится взять ситуацию в свои руки.

Страна: США
Студия: LightTower Entertainment, Widget Films, Sierra / Affinity, Rat Entertainment, The Genre Co, Troma Entertainment
Продолжительность: 01:52:16
Перевод: Профессиональный (многоголосый, закадровый)
Файл
Формат: MKV
Качество: HDRip-AVC
Видео: MPEG-4 AVC, 768x320, ~ 850 Кбит/с
Аудио: AAC-LC, 2 ch, ~ 76 Кбит/с
Субтитры: Русские, английские
Общее
Уникальный идентификатор : 216916795754451037038104295566933638673 (0xA330A7BDB436CD3EB1274A4AB3B23E11)
Полное имя : D:MOVIESMother's.Day.2010.ExKinoRay.mkv
Формат : Matroska
Версия формата : Version 4 / Version 2
Размер файла : 744 Мбайт
Продолжительность : 1 ч. 52 м.
Общий поток : 924 Кбит/сек
Дата кодирования : UTC 2018-01-12 12:40:20
Программа кодирования : mkvmerge v15.0.0 ('Duel with the Devil') 64-bit
Библиотека кодирования : libebml v1.3.5 + libmatroska v1.4.5
Видео
Идентификатор : 1
Формат : AVC
Формат/Информация : Advanced Video Codec
Профиль формата : [email protected]
Параметр CABAC формата : Да
Параметр RefFrames формата : 10 кадров
Идентификатор кодека : V_MPEG4/ISO/AVC
Продолжительность : 1 ч. 52 м.
Битрейт : 850 Кбит/сек
Ширина : 768 пикселей
Высота : 320 пикселей
Соотношение сторон : 2,40:1
Режим частоты кадров : Постоянный
Частота кадров : 23,976 (24000/1001) кадра/сек
Цветовое пространство : YUV
Субдискретизация насыщенности : 4:2:0
Битовая глубина : 8 бит
Тип развёртки : Прогрессивная
Бит/(Пиксели*Кадры) : 0.144
Размер потока : 681 Мбайт (92%)
Библиотека кодирования : x264 core 152 r2851kMod ba24899
Настройки программы : cabac=1 / ref=10 / deblock=1:-3:-3 / analyse=0x3:0x133 / me=umh / subme=11 / psy=1 / fade_compensate=0.00 / psy_rd=1.00:0.11 / mixed_ref=1 / me_range=32 / chroma_me=1 / trellis=2 / 8x8dct=1 / cqm=0 / deadzone=21,11 / fast_pskip=0 / chroma_qp_offset=-3 / threads=6 / lookahead_threads=1 / sliced_threads=0 / nr=0 / decimate=0 / interlaced=0 / bluray_compat=0 / constrained_intra=0 / bframes=10 / b_pyramid=2 / b_adapt=2 / b_bias=0 / direct=3 / weightb=1 / open_gop=0 / weightp=2 / keyint=240 / keyint_min=23 / scenecut=40 / intra_refresh=0 / rc_lookahead=40 / rc=2pass / mbtree=1 / bitrate=850 / ratetol=1.0 / qcomp=0.60 / qpmin=0 / qpmax=69 / qpstep=4 / cplxblur=20.0 / qblur=0.5 / vbv_maxrate=50000 / vbv_bufsize=62500 / nal_hrd=none / filler=0 / ip_ratio=1.40 / aq=3:1.00
Default : Да
Forced : Нет
Аудио
Идентификатор : 2
Формат : AAC
Формат/Информация : Advanced Audio Codec
Профиль формата : LC
Идентификатор кодека : A_AAC
Продолжительность : 1 ч. 52 м.
Битрейт : 76,0 Кбит/сек
Каналы : 2 канала
Расположение каналов : Front: L R
Частота : 48,0 КГц
Частота кадров : 46,875 кадров/сек (1024 SPF)
Метод сжатия : С потерями
Задержка видео : 9 мс.
Размер потока : 61,2 Мбайт (8%)
Язык : Russian
Default : Да
Forced : Нет
Текст #1
Идентификатор : 3
Формат : UTF-8
Идентификатор кодека : S_TEXT/UTF8
Идентификатор кодека/Информация : UTF-8 Plain Text
Продолжительность : 1 ч. 48 м.
Битрейт : 73 бит/сек
ElementCount : 1310
Размер потока : 58,7 Кбайт (0%)
Язык : Russian
Default : Нет
Forced : Нет
Текст #2
Идентификатор : 4
Формат : UTF-8
Идентификатор кодека : S_TEXT/UTF8
Идентификатор кодека/Информация : UTF-8 Plain Text
Продолжительность : 1 ч. 46 м.
Битрейт : 51 бит/сек
ElementCount : 1518
Размер потока : 40,1 Кбайт (0%)
Язык : English
Default : Нет
Forced : Нет
Меню
00:00:00.000 : en:Chapter 1
00:02:29.274 : en:Chapter 2
00:07:15.143 : en:Chapter 3
00:13:23.177 : en:Chapter 4
00:18:06.919 : en:Chapter 5
00:22:12.748 : en:Chapter 6
00:29:49.162 : en:Chapter 7
00:33:28.381 : en:Chapter 8
00:39:49.596 : en:Chapter 9
00:44:30.793 : en:Chapter 10
00:49:19.540 : en:Chapter 11
00:55:57.271 : en:Chapter 12
01:02:04.346 : en:Chapter 13
01:07:05.271 : en:Chapter 14
01:14:16.494 : en:Chapter 15
01:19:50.244 : en:Chapter 16
01:24:42.995 : en:Chapter 17
01:30:49.277 : en:Chapter 18
01:36:03.883 : en:Chapter 19
01:40:36.614 : en:Chapter 20
01:47:19.350 : en:Chapter 21



Релиз от:



   Похожие торренты   Торрент   Размер 
В этой теме нет новых непрочитанных сообщений. День матери / Mother's Day (2010) HDRip от Scarabey | Р

45 | 7

1.45 ГБ

В этой теме нет новых непрочитанных сообщений. День матери / Mother's day (2010) HDRip | Лицензия

21 | 1

702.24 МБ

В этой теме нет новых непрочитанных сообщений. День матери / Mother's Day (2010) HDRip от Scarabey | Р

11 | 4

747.07 МБ

В этой теме нет новых непрочитанных сообщений. День матери / Mother's day (2010) HDRip | Лицензия

3 | 6

1.45 ГБ

В этой теме нет новых непрочитанных сообщений. День матери / Mother's day (2010) BDRip-AVC от 0ptimus | P, L

2 | 3

2.72 ГБ

В этой теме нет новых непрочитанных сообщений. День матери / Mother's Day (2010) BDRip от HQCLUB | Лицензия

100 | 6

2.18 ГБ

В этой теме нет новых непрочитанных сообщений. День матери / Mother's day (2010) BDRip-AVC от HELLYWOOD | Лицензия

26 | 13

2.44 ГБ




Вы не можете начинать темы
Вы не можете отвечать на сообщения
Вы не можете редактировать свои сообщения
Вы не можете удалять свои сообщения
Вы не можете добавлять вложения

Перейти:  
Для Мосгорсуда, Роскомнадзора и рекламодателей: mosgorsud-torrent[собачка]yandex.ru
 Вход
ppkBB3cker v.2 © 2008-2014 @ PPK
[ Time : 0.139s | 19 Queries | GZIP : Off ]

cron