img image001 image001 image001 image001 image001 image001 image001 image001 image001 image001 image001 image001 image001 image001 image001 image001
Planets Sun Sun Sun
Статистика раздачи
Автор: Nickolas3434 | Размер: 1.09 ГБ | Добавлен: 28 янв 2018
Раздают: 5    Качают: 0
Скачать торрент
Скачать торрент
Описание торрента

СообщениеДобавлено: 28 янв 2018 


Мы "В КОНТАКТЕ"


Страна: СССР
Производство: Беларусьфильм
Жанр: мелодрама
Год выпуска: 1959
Продолжительность: 01:22:15
Перевод: Не требуется
Cубтитры: нет
Оригинальная аудиодорожка: русский
Режиссер: Сергей Сплошнов
В ролях:
Нина Иванова, Эдуард Бредун, Зинаида Асмолова, Муза Крепкогорская, Инга Будкевич, Анатолий Адоскин, Татьяна Алексеева, Константин Сорокин, Фёдор Шмаков, Павел Молчанов, Валентина Кравченко, Евгений Полосин, Борис Щербаков, Юрий Галкин...
Об актёрах подробней
Описание:
В одной из комнат общежития камвольного комбината живут четыре девушки-ткачихи: Катя, Тамара, Полина и Зина. Обстоятельства сложились так, что Катю (Нина Иванова) обвинили в нечестном поступке. Все улики против неё. Кате приходится пережить разрыв с любимым человеком, который ей не поверил. Она покидает комбинат и уезжает на далёкую стройку.





Источник: DVD5 R5
Качество видео: DVDRip
Формат видео: AVI
Видео: 704x528 (4:3), 25 fps, XviD ~ 1696 kbps avg, 0.182 bit/pixel
Аудио: 48 kHz, Dolby Digital AC3 2.0, 192 kbps
Раздача от:
Общее
Полное имя : Lyubovyu.nado.dorozhit.1959.DVDRip_[New-team]_by_AVP_Studio.avi
Формат : AVI
Формат/Информация : Audio Video Interleave
Размер файла : 1,09 Гбайт
Продолжительность : 1 ч. 22 м.
Общий поток : 1898 Кбит/сек
Программа кодирования : VirtualDubMod 1.5.10.3 | www.virtualdub-fr.org || (build 2550/release)
Библиотека кодирования : VirtualDubMod build 2550/release
Видео
Идентификатор : 0
Формат : MPEG-4 Visual
Профиль формата : Advanced [email protected]
Настройки формата : BVOP1 / Custom Matrix
Параметр BVOP формата : 1
Параметр QPel формата : Нет
Параметр GMC формата : Без точки перехода
Параметр матрицы формата : Выборочная
Идентификатор кодека : XVID
Идентификатор кодека/Подсказка : XviD
Продолжительность : 1 ч. 22 м.
Битрейт : 1696 Кбит/сек
Ширина : 704 пикселя
Высота : 528 пикселей
Соотношение сторон : 4:3
Частота кадров : 25,000 кадров/сек
Цветовое пространство : YUV
Субдискретизация насыщенности : 4:2:0
Битовая глубина : 8 бит
Тип развёртки : Прогрессивная
Метод сжатия : С потерями
Бит/(Пиксели*Кадры) : 0.182
Размер потока : 998 Мбайт (89%)
Библиотека кодирования : XviD 73
Аудио
Идентификатор : 1
Формат : AC-3
Формат/Информация : Audio Coding 3
Идентификатор кодека : 2000
Продолжительность : 1 ч. 22 м.
Вид битрейта : Постоянный
Битрейт : 192 Кбит/сек
Каналы : 2 канала
Расположение каналов : Front: L R
Частота : 48,0 КГц
Частота кадров : 31,250 кадров/сек (1536 SPF)
Битовая глубина : 16 бит
Метод сжатия : С потерями
Размер потока : 113 Мбайт (10%)
Выравнивание : Разделение по промежуткам
Продолжительность промежутка : 40 мс. (1,00 видеокадр)
Время предзагрузки промежутка : 500 мс





   Похожие торренты   Торрент   Размер 
В этой теме нет новых непрочитанных сообщений. Любовью надо дорожить (1959) DVDRip-AVC от New-Team

17 | 0

1.09 ГБ

В этой теме нет новых непрочитанных сообщений. Любовью надо дорожить (1959) DVDRip от New-Team

5 | 0

745.65 МБ

В этой теме нет новых непрочитанных сообщений. Счастье надо беречь DVDRip от New-Team

5 | 0

1.09 ГБ

В этой теме нет новых непрочитанных сообщений. Счастье надо беречь DVDRip от New-Team

2 | 0

745.34 МБ

В этой теме нет новых непрочитанных сообщений. Счастье надо беречь DVDRip-AVC от New-Team

9 | 0

1.09 ГБ

В этой теме нет новых непрочитанных сообщений. Таврия (1959) DVDRip от New-Team

11 | 0

1.09 ГБ

В этой теме нет новых непрочитанных сообщений. Таврия (1959) DVDRip от New-Team

4 | 0

761.71 МБ




Вы не можете начинать темы
Вы не можете отвечать на сообщения
Вы не можете редактировать свои сообщения
Вы не можете удалять свои сообщения
Вы не можете добавлять вложения

Перейти:  
Для Мосгорсуда, Роскомнадзора и рекламодателей: mosgorsud-torrent[собачка]yandex.ru
 Вход
ppkBB3cker v.2 © 2008-2014 @ PPK
[ Time : 0.041s | 18 Queries | GZIP : Off ]

cron