img image001 image001 image001 image001 image001 image001 image001 image001 image001 image001 image001 image001 image001 image001 image001 image001
Planets Sun Sun Sun
Статистика раздачи
Автор: Nickolas3434 | Размер: 11.07 ГБ | Добавлен: 01 фев 2018
Раздают: 0    Качают: 0
Скачать торрент
Скачать торрент
Описание торрента

СообщениеДобавлено: 01 фев 2018 

Информация о фильме
Название: Матильда
Год выхода: 2017
Жанр: Драма, история
Режиссер: Алексей Учитель
В ролях: Михалина Ольшанска, Ларс Айдингер, Луиза Вольфрам, Данила Козловский, Ингеборга Дапкунайте, Сергей Гармаш, Евгений Миронов, Григорий Добрынин, Галина Тюнина, Виталий Коваленко, Виталий Кищенко и др.
О фильме: На выпускном спектакле Императорского театрального училища Николай впервые видит Матильду Кшесинскую. Несмотря на козни соперницы, юная балерина блистательно исполняет свою партию и срывает бурные аплодисменты, а наследник престола не на шутку увлекается дерзкой тансовщицей. Между ними вспыхивает сильное чувство, но приходит день, когда нужно принимать судьбоносное решение, от которого зависит ход истории. Последний русский император и балерина, утвердившая славу русского балета. Любовь, ставшая легендой, в исторической мелодраме Алексея Учителя.
Выпущено: ТПО "Рок"
Продолжительность: 01:48:38
Перевод: Не требуется
Файл
Кодек: AVC
Качество: BDRip 1080p
Видео: 1920x804, ~ 10.1 Мбит/с, 24,000 к/c
Звук#1: AC3, 6.0, 48 kHz, 640 kbps
Звук#2: DTS-HD Master Audio 5.1, 48 kHz, 1509 kbps
Общее
Уникальный идентификатор : 241315747558358321343559389856828024089 (0xB58BB8F101EEA0F584B320E56ECCE519)
Полное имя : E:MatildaMATILDA.1080.mkv
Формат : Matroska
Версия формата : Version 4 / Version 2
Размер файла : 11,1 Гбайт
Продолжительность : 1 ч. 48 м.
Режим общего битрейта : Переменный
Общий поток : 14,6 Мбит/сек
Название фильма : MATILDA.Title2
Дата кодирования : UTC 2018-01-30 12:25:28
Программа кодирования : mkvmerge v9.5.0 ('Quiet Fire') 64bit
Библиотека кодирования : libebml v1.3.4 + libmatroska v1.4.5
Видео
Идентификатор : 1
Формат : AVC
Формат/Информация : Advanced Video Codec
Профиль формата : [email protected]
Настройки формата : CABAC / 3 Ref Frames
Параметр CABAC формата : Да
Параметр RefFrames формата : 3 кадра
Параметр GOP формата : M=3, N=24
Идентификатор кодека : V_MPEG4/ISO/AVC
Продолжительность : 1 ч. 48 м.
Вид битрейта : Переменный
Битрейт : 10,1 Мбит/сек
Максимальный битрейт : 12,0 Мбит/сек
Ширина : 1920 пикселей
Высота : 804 пикселя
Соотношение сторон : 2,40:1
Режим частоты кадров : Постоянный
Частота кадров : 24,000 кадра/сек
Стандарт вещания : PAL
Цветовое пространство : YUV
Субдискретизация насыщенности : 4:2:0
Битовая глубина : 8 бит
Тип развёртки : Прогрессивная
Бит/(Пиксели*Кадры) : 0.272
Размер потока : 7,63 Гбайт (69%)
Язык : English
Default : Да
Forced : Нет
Цветовой диапазон : Limited
Основные цвета : BT.709
Характеристики трансфера : BT.709
Коэффициенты матрицы : BT.709
Аудио #1
Идентификатор : 2
Формат : AC-3
Формат/Информация : Audio Coding 3
Параметр Endianness формата : Big
Идентификатор кодека : A_AC3
Продолжительность : 1 ч. 48 м.
Вид битрейта : Постоянный
Битрейт : 640 Кбит/сек
Каналы : 6 каналов
Расположение каналов : Front: L C R, Side: L R, LFE
Частота : 48,0 КГц
Частота кадров : 31,250 кадров/сек (1536 SPF)
Битовая глубина : 16 бит
Метод сжатия : С потерями
Размер потока : 497 Мбайт (4%)
Default : Нет
Forced : Нет
Аудио #2
Идентификатор : 3
Формат : DTS
Формат/Информация : Digital Theater Systems
Профиль формата : MA / Core
Режим : 16
Параметр Endianness формата : Big
Идентификатор кодека : A_DTS
Продолжительность : 1 ч. 48 м.
Вид битрейта : Переменный / Постоянный
Битрейт : 3840 Кбит/сек / 1509 Кбит/сек
Каналы : 6 каналов
Расположение каналов : Front: L C R, Side: L R, LFE
Частота : 48,0 КГц
Частота кадров : 93,750 кадра/сек (512 SPF)
Битовая глубина : 24 бит
Метод сжатия : Без потерь / Lossy
Размер потока : 2,95 Гбайт (27%)
Язык : Russian
Default : Да
Forced : Нет



   Похожие торренты   Торрент   Размер 
В этой теме нет новых непрочитанных сообщений. Матильда (2017) Blu-ray 1080p | Лицензия

0 | 0

27.56 ГБ

В этой теме нет новых непрочитанных сообщений. Матильда (2017) BDRemux 1080p | Лицензия

38 | 3

17.22 ГБ

В этой теме нет новых непрочитанных сообщений. Матильда (2017) BDRip 720p

0 | 0

4.28 ГБ

В этой теме нет новых непрочитанных сообщений. Матильда / Matilda (1996) BDRip 1080p от HDClub | D, P, A

11 | 5

12.45 ГБ

В этой теме нет новых непрочитанных сообщений. Матильда (2017) BDRip-AVC от OlLanDGroup | Лицензия

122 | 3

742 МБ

В этой теме нет новых непрочитанных сообщений. Матильда (2017) BDRip от ExKinoRay | Лицензия

398 | 6

1.46 ГБ

В этой теме нет новых непрочитанных сообщений. Матильда (2017) BDRip 720p от ExKinoRay | Лицензия

283 | 16

4.63 ГБ




Вы не можете начинать темы
Вы не можете отвечать на сообщения
Вы не можете редактировать свои сообщения
Вы не можете удалять свои сообщения
Вы не можете добавлять вложения

Перейти:  
Для Мосгорсуда, Роскомнадзора и рекламодателей: mosgorsud-torrent[собачка]yandex.ru
 Вход
ppkBB3cker v.2 © 2008-2014 @ PPK
[ Time : 0.041s | 18 Queries | GZIP : Off ]

cron