img image001 image001 image001 image001 image001 image001 image001 image001 image001 image001 image001 image001 image001 image001 image001
Planets Sun Sun Sun
Статистика раздачи
Автор: Nickolas3434 | Размер: 7.25 ГБ | Добавлен: 04 фев 2018
Раздают: 0    Качают: 0
Скачать торрент
Скачать торрент
Описание торрента

СообщениеДобавлено: 04 фев 2018 

Информация о фильме
Название: Нелюбовь
Год выхода: 2017
Жанр: Драма
Режиссер: Андрей Звягинцев
В ролях: Марьяна Спивак, Алексей Розин, Матвей Новиков, Марина Васильева, Андрис Кейшс, Алексей Фатеев, Сергей Борисов, Наталья Потапова, Анна Гуляренко, Артем Жигулин
О фильме:
Фильм рассказывает о современной московской семье, переживающей тяжелый, мучительный развод. Главные герои (Женя и Борис) — ещё супруги, но каждый из них уже фактически начал новую главу жизни, и потому им не терпится покончить с формальностями и развестись. В череде конфликтов и бесконечных взаимных претензий Женя и Борис пренебрегают своим единственным ребенком, 12-летним Алёшей, который чувствует абсолютную ненужность обоим родителям. Неожиданно, после их очередной ссоры, Алёша исчезает.

Страна: Россия
Студия: arte France Cinéma, Fetisoff Illusion, Les Films du Fleuve, Нон-стоп Продакшн, Senator Film Produktion GmbH, Why Not Productions
Продолжительность: 2:01:46
Перевод: Не требуется | Лицензия
Файл
Качество: BDRip 720p
Формат: MKV
Кодек: MPEG-4 AVC
Видео: 1280x536 (2,40:1), 25 fps, MPEG-4 AVC ~ 6376 Кbps avg, 0.372 bit/pixel
Аудио: AC3, 48 kHz, 6 ch, ~640.00 kbps avg | русский | Blu-ray FRA
Аудио: DTS, 48 kHz, 6 ch, ~1509.00 kbps avg | русский | Blu-ray FRA
Субтитры: Отсутствуют
Общее
Уникальный идентификатор : 226526321204676151459845071303031141055 (0xAA6B61ECD49BEBC2AE7C811F1FB832BF)
Полное имя : Loveless.2017.x264.FRA.Transfer.BDRip.720p.BLUEBIRD.mkv
Формат : Matroska
Версия формата : Version 4 / Version 2
Размер файла : 7,25 Гбайт
Продолжительность : 2 ч. 1 м.
Общий поток : 8527 Кбит/сек
Название фильма : Loveless.2017.x264.FRA.Transfer.BDRip.720p.BLUEBIRD
Дата кодирования : UTC 2018-02-01 19:48:55
Программа кодирования : mkvmerge v7.9.0 ('Birds') 64bit
Библиотека кодирования : libebml v1.3.1 + libmatroska v1.4.2
Видео
Идентификатор : 1
Формат : AVC
Формат/Информация : Advanced Video Codec
Профиль формата : [email protected]
Настройки формата : CABAC / 8 Ref Frames
Параметр CABAC формата : Да
Параметр ReFrames формата : 8 кадров
Идентификатор кодека : V_MPEG4/ISO/AVC
Продолжительность : 2 ч. 1 м.
Битрейт : 6376 Кбит/сек
Ширина : 1280 пикселей
Высота : 536 пикселей
Соотношение сторон : 2,40:1
Режим частоты кадров : Постоянный
Частота кадров : 25,000 кадров/сек
Цветовое пространство : YUV
Субдискретизация насыщенности : 4:2:0
Битовая глубина : 8 бит
Тип развёртки : Прогрессивная
Бит/(Пиксели*Кадры) : 0.372
Размер потока : 5,42 Гбайт (75%)
Заголовок : Loveless.2017.x264.FRA.Transfer.BDRip.720p.BLUEBIRD
Библиотека кодирования : x264 core 155 r2901 7d0ff22
Настройки программы : cabac=1 / ref=8 / deblock=1:-3:-3 / analyse=0x3:0x113 / me=umh / subme=10 / psy=1 / psy_rd=1.10:0.01 / mixed_ref=1 / me_range=32 / chroma_me=1 / trellis=2 / 8x8dct=1 / cqm=0 / deadzone=21,11 / fast_pskip=0 / chroma_qp_offset=-3 / threads=6 / lookahead_threads=1 / sliced_threads=0 / nr=0 / decimate=0 / interlaced=0 / bluray_compat=0 / constrained_intra=0 / bframes=6 / b_pyramid=2 / b_adapt=1 / b_bias=0 / direct=3 / weightb=1 / open_gop=0 / weightp=2 / keyint=250 / keyint_min=25 / scenecut=40 / intra_refresh=0 / rc_lookahead=80 / rc=crf / mbtree=0 / crf=15.0 / qcomp=0.60 / qpmin=0 / qpmax=69 / qpstep=4 / vbv_maxrate=62500 / vbv_bufsize=78125 / crf_max=0.0 / nal_hrd=none / filler=0 / ip_ratio=1.40 / pb_ratio=1.30 / aq=1:0.80
Язык : Russian
Default : Да
Forced : Нет
Аудио #1
Идентификатор : 2
Формат : AC-3
Формат/Информация : Audio Coding 3
Идентификатор кодека : A_AC3
Продолжительность : 2 ч. 1 м.
Вид битрейта : Постоянный
Битрейт : 640 Кбит/сек
Каналы : 6 каналов
Расположение каналов : Front: L C R, Side: L R, LFE
Частота : 48,0 КГц
Частота кадров : 31,250 кадров/сек (1536 SPF)
Битовая глубина : 16 бит
Метод сжатия : С потерями
Размер потока : 557 Мбайт (8%)
Заголовок : Оригинал DD 5.1
Язык : Russian
Default : Да
Forced : Нет
Аудио #2
Идентификатор : 3
Формат : DTS
Формат/Информация : Digital Theater Systems
Идентификатор кодека : A_DTS
Продолжительность : 2 ч. 1 м.
Вид битрейта : Постоянный
Битрейт : 1509 Кбит/сек
Каналы : 6 каналов
Расположение каналов : Front: L C R, Side: L R, LFE
Частота : 48,0 КГц
Частота кадров : 93,750 кадра/сек (512 SPF)
Битовая глубина : 24 бит
Метод сжатия : С потерями
Размер потока : 1,28 Гбайт (18%)
Заголовок : Оригинал DTS 5.1
Язык : Russian
Default : Нет
Forced : Нет
Меню
00:00:00.000 : en:00:00:00.000
00:08:58.000 : en:00:08:58.000
00:19:00.000 : en:00:19:00.000
00:27:38.240 : en:00:27:38.240
00:34:28.920 : en:00:34:28.920
00:47:27.120 : en:00:47:27.120
01:00:50.840 : en:01:00:50.840
01:09:28.200 : en:01:09:28.200
01:16:29.800 : en:01:16:29.800
01:27:02.080 : en:01:27:02.080
01:36:34.720 : en:01:36:34.720
01:45:30.640 : en:01:45:30.640



   Похожие торренты   Торрент   Размер 
В этой теме нет новых непрочитанных сообщений. Нелюбовь (2017) Blu-ray 1080i | FRA Transfer | Лицензия

0 | 0

38.68 ГБ

В этой теме нет новых непрочитанных сообщений. Нелюбовь (2017) BDRip 720p от Scarabey | Лицензия

93 | 18

8.83 ГБ

В этой теме нет новых непрочитанных сообщений. Нелюбовь (2017) BDRip | Лицензия

87 | 0

701.47 МБ

В этой теме нет новых непрочитанных сообщений. Нелюбовь (2017) BDRip от MegaPeer | Лицензия

227 | 3

2.18 ГБ

В этой теме нет новых непрочитанных сообщений. Нелюбовь (2017) BDRip-AVC от OlLanDGroup | Лицензия

63 | 3

747.13 МБ

В этой теме нет новых непрочитанных сообщений. Нелюбовь (2017) BDRip от HQ-ViDEO | Лицензия

0 | 0

2.18 ГБ

В этой теме нет новых непрочитанных сообщений. Нелюбовь (2017) BDRip 1080p от OlLanDGroup | Лицензия

305 | 38

12.73 ГБ




Вы не можете начинать темы
Вы не можете отвечать на сообщения
Вы не можете редактировать свои сообщения
Вы не можете удалять свои сообщения
Вы не можете добавлять вложения

Перейти:  
Для Мосгорсуда, Роскомнадзора и рекламодателей: mosgorsud-torrent[собачка]yandex.ru
 Вход
ppkBB3cker v.2 © 2008-2014 @ PPK
[ Time : 0.060s | 18 Queries | GZIP : Off ]

cron