img image001 image001 image001 image001 image001 image001 image001 image001 image001 image001 image001 image001 image001 image001 image001 image001
Planets Sun Sun Sun
Статистика раздачи
Автор: Nickolas3434 | Размер: 3.83 ГБ | Добавлен: 18 янв 2018
Раздают: 0    Качают: 0
Скачать торрент
Скачать торрент
Описание торрента

СообщениеДобавлено: 18 янв 2018 

Информация о фильме
Название: ЛЕГО Ниндзяго Фильм
Оригинальное название: The LEGO Ninjago Movie
Год выхода: 2017
Жанр: Мультфильм, боевик, комедия, семейный
Режиссер: Чарли Бин, Пол Фишер, Боб Логан
В ролях: Джеки Чан, Дэйв Франко, Фред Армисен, Кумэйл Нанджиани, Майкл Пенья, Эбби Джейкобсон, Зак Вудс, Дэвид Берроуз, Джастин Теру
О фильме:
Ниндзяго-сити призывает на свою защиту юного Ллойда, он же Зеленый ниндзя, и его друзей, тайных воинов и Великих мастеров ЛЕГО. Под предводительством кунг-фу мастера Ву, столь же умного, сколь и остроумного, они должны одолеть злобного диктатора Гармадона, Самого Злодейского Злодея, который оказывается отцом Ллойда. Роботы против роботов, сын против отца; эпическое столкновение проверит на прочность эту неистовую, но не самую дисциплинированную команду современных ниндзя, которые должны научиться усмирять свое самомнение, чтобы по полной проявить свои способности.

Страна: Дания, США
Студия: LEGO System A/S, Lin Pictures, Lord Miller, RatPac-Dune Entertainment
Продолжительность: 01:41:26
Перевод: Дублированный | Лицензия
Файл
Качество: BDRip 720p
Видео: MPEG-4 AVC, 1280x536, 4500 Kbit/s, 23.976 fps
Звук:
Аудио #01: 48 kHz, AC3, 5.1, 448 Kbps | Дублированный | RUS |
Аудио #02: 48 kHz, AC3, 5.1, 448 Kbps | Оригинал | ENG |
Субтитры: Русские (forced, full), английские

General
Unique ID : 239843352719059180721139150548165222971 (0xB4702645652B3FB555F7ED945DD4623B)
Complete name : G:VideoSSDThe.LEGO.Ninjago.Movie.2017.Lic.BDRip.720p.ExKinoRay.mkv
Format : Matroska
Format version : Version 4 / Version 2
File size : 3.83 GiB
Duration : 1 h 41 min
Overall bit rate : 5 398 kb/s
Movie name : The LEGO Ninjago Movie 2017 from ExKinoRay
Encoded date : UTC 2018-01-18 01:55:15
Writing application : mkvmerge v20.0.0 ('I Am The Sun') 64-bit
Writing library : libebml v1.3.5 + libmatroska v1.4.8
Video
ID : 1
Format : AVC
Format/Info : Advanced Video Codec
Format profile : [email protected]
Format settings : CABAC / 12 Ref Frames
Format settings, CABAC : Yes
Format settings, ReFrames : 12 frames
Codec ID : V_MPEG4/ISO/AVC
Duration : 1 h 41 min
Bit rate : 4 500 kb/s
Width : 1 280 pixels
Height : 536 pixels
Display aspect ratio : 2.40:1
Frame rate mode : Constant
Frame rate : 23.976 (24000/1001) FPS
Color space : YUV
Chroma subsampling : 4:2:0
Bit depth : 8 bits
Scan type : Progressive
Bits/(Pixel*Frame) : 0.274
Stream size : 3.19 GiB (83%)
Writing library : x264 core 148 r2705 3f5ed56
Encoding settings : cabac=1 / ref=12 / deblock=1:-3:-3 / analyse=0x3:0x133 / me=umh / subme=11 / psy=1 / psy_rd=1.05:0.05 / mixed_ref=1 / me_range=32 / chroma_me=1 / trellis=2 / 8x8dct=1 / cqm=0 / deadzone=21,11 / fast_pskip=0 / chroma_qp_offset=-3 / threads=24 / lookahead_threads=4 / sliced_threads=0 / nr=0 / decimate=0 / interlaced=0 / bluray_compat=0 / constrained_intra=0 / bframes=8 / b_pyramid=2 / b_adapt=2 / b_bias=0 / direct=3 / weightb=1 / open_gop=0 / weightp=2 / keyint=240 / keyint_min=23 / scenecut=40 / intra_refresh=0 / rc_lookahead=50 / rc=2pass / mbtree=0 / bitrate=4500 / ratetol=1.0 / qcomp=0.60 / qpmin=0 / qpmax=69 / qpstep=4 / cplxblur=20.0 / qblur=0.5 / vbv_maxrate=50000 / vbv_bufsize=62500 / nal_hrd=none / filler=0 / ip_ratio=1.40 / pb_ratio=1.30 / aq=3:0.80
Language : English
Default : Yes
Forced : No
Audio #1
ID : 2
Format : AC-3
Format/Info : Audio Coding 3
Codec ID : A_AC3
Duration : 1 h 41 min
Bit rate mode : Constant
Bit rate : 448 kb/s
Channel(s) : 6 channels
Channel positions : Front: L C R, Side: L R, LFE
Sampling rate : 48.0 kHz
Frame rate : 31.250 FPS (1536 SPF)
Bit depth : 16 bits
Compression mode : Lossy
Stream size : 325 MiB (8%)
Title : Dub [License]
Language : Russian
Service kind : Complete Main
Default : Yes
Forced : No
Audio #2
ID : 3
Format : AC-3
Format/Info : Audio Coding 3
Codec ID : A_AC3
Duration : 1 h 41 min
Bit rate mode : Constant
Bit rate : 448 kb/s
Channel(s) : 6 channels
Channel positions : Front: L C R, Side: L R, LFE
Sampling rate : 48.0 kHz
Frame rate : 31.250 FPS (1536 SPF)
Bit depth : 16 bits
Compression mode : Lossy
Stream size : 325 MiB (8%)
Title : Original
Language : English
Service kind : Complete Main
Default : No
Forced : No
Text #1
ID : 4
Format : UTF-8
Codec ID : S_TEXT/UTF8
Codec ID/Info : UTF-8 Plain Text
Duration : 1 h 37 min
Bit rate : 1 b/s
Count of elements : 21
Stream size : 774 Bytes (0%)
Title : Forced
Language : Russian
Default : Yes
Forced : No
Text #2
ID : 5
Format : UTF-8
Codec ID : S_TEXT/UTF8
Codec ID/Info : UTF-8 Plain Text
Duration : 1 h 40 min
Bit rate : 123 b/s
Count of elements : 1784
Stream size : 91.5 KiB (0%)
Title : Full
Language : Russian
Default : No
Forced : No
Text #3
ID : 6
Format : UTF-8
Codec ID : S_TEXT/UTF8
Codec ID/Info : UTF-8 Plain Text
Duration : 1 h 35 min
Bit rate : 80 b/s
Count of elements : 2043
Stream size : 55.8 KiB (0%)
Title : Full
Language : English
Default : No
Forced : No
Menu
00:00:00.000 : en:Chapter 01
00:11:44.746 : en:Chapter 02
00:23:32.453 : en:Chapter 03
00:31:09.785 : en:Chapter 04
00:40:53.368 : en:Chapter 05
00:53:48.392 : en:Chapter 06
01:03:05.532 : en:Chapter 07
01:16:07.688 : en:Chapter 08
01:25:13.608 : en:Chapter 09
01:32:10.900 : en:Chapter 10

Релиз от: Автор релиза:
Подпишись на меня, кликни по картинке > :



   Похожие торренты   Торрент   Размер 
В этой теме нет новых непрочитанных сообщений. ЛЕГО Ниндзяго Фильм / The LEGO Ninjago Movie (2017) BDRip 1080p от ExKinoRay | Лицензия

0 | 0

7.74 ГБ

В этой теме нет новых непрочитанных сообщений. ЛЕГО Ниндзяго Фильм / The LEGO Ninjago Movie (2017) BDRip 720p от ExKinoRay | iTunes

221 | 11

3.78 ГБ

В этой теме нет новых непрочитанных сообщений. ЛЕГО Ниндзяго Фильм / The LEGO Ninjago Movie (2017) BDRemux 1080p от ExKinoRay | Лицензия

0 | 0

18.58 ГБ

В этой теме нет новых непрочитанных сообщений. ЛЕГО Ниндзяго Фильм / The LEGO Ninjago Movie (2017) BDRemux 1080p от ExKinoRay | 3D-Video | Лицензия

0 | 0

25.93 ГБ

В этой теме нет новых непрочитанных сообщений. ЛЕГО Ниндзяго Фильм / The LEGO Ninjago Movie (2017) BDRip от ExKinoRay | iTunes

130 | 5

1.46 ГБ

В этой теме нет новых непрочитанных сообщений. ЛЕГО Ниндзяго Фильм / The LEGO Ninjago Movie (2017) BDRip от ExKinoRay | iTunes

49 | 0

1.51 ГБ

В этой теме нет новых непрочитанных сообщений. ЛЕГО Ниндзяго Фильм / The LEGO Ninjago Movie (2017) BDRip 1080p от ExKinoRay | iTunes

307 | 20

7.69 ГБ




Вы не можете начинать темы
Вы не можете отвечать на сообщения
Вы не можете редактировать свои сообщения
Вы не можете удалять свои сообщения
Вы не можете добавлять вложения

Перейти:  
Для Мосгорсуда, Роскомнадзора и рекламодателей: mosgorsud-torrent[собачка]yandex.ru
 Вход
ppkBB3cker v.2 © 2008-2014 @ PPK
[ Time : 3.979s | 18 Queries | GZIP : Off ]

cron