img image001 image001 image001 image001 image001 image001 image001 image001 image001 image001 image001 image001 image001 image001 image001 image001
Planets Sun Sun Sun
Статистика раздачи
Автор: Nickolas3434 | Размер: 3.35 ГБ | Добавлен: 28 янв 2018
Раздают: 398    Качают: 8
Скачать торрент
Скачать торрент
Описание торрента

СообщениеДобавлено: 28 янв 2018 

Информация о фильме
Название: Колобанга. Привет, Интернет!
Год выхода: 2017
Жанр: Мультфильм, приключения, комедия, детектив
Режиссер: Александр Романец, Вячеслав Марченко
В ролях: Михаил Галустян, Александр Ревва, Гарик Харламов, Александр Романец, Вячеслав Марченко, Илья Дорогов, Сергей Васин, Денис Заречнов, Никита Погодаев, Олег Кучин
О фильме:
Премьера полнометражной версии сериала о смайликах-колобках, популярного во всем мире. Где-то в Интернете есть удивительный городок – Колобанга. Населяют его трудолюбивые смайлики-колобки. Их призвание – помогать мальчику Антону выражать свои эмоции в мессенджере. Ведь на самом деле это сложный технический процесс, в котором участвуют многие жители Колобанги, и у каждого из них – своя задача. А в остальном их жизнь веселая и беззаботная.Но однажды все меняется: кто-то похитил почтовую собачку Атоса, а значит, всем жителям Колобанги грозит исчезновение. Антон больше не может отправлять электронную почту, и, чтобы эту решить проблему, он вот-вот может начать переустанавливать систему.Нужно срочно отыскать Атоса, и за расследование берутся трое любопытных смайликов – Челка, Колобок и Умник. Друзья отправятся в опасное путешествие в Интернет. Здесь они увидят много нового и необычного, побывают в древней стране Фидо, встретятся с пришельцами и попытаются помешать тому, кто задумал поработить весь Интернет.Мультфильм «Колобанга. Привет, Интернет!» – новая работа шоумена и комедийного актера Александра Реввы в качестве продюсера. По его словам, это настоящий анимационный детектив для всей семьи.

Страна: Россия
Студия: киностудия "MVK"
Продолжительность: 01:29:36
Перевод: Не требуется
Файл
Кодек: h.264
Качество: WEB-DLRip 1080p
Видео: MPEG-4 AVC, 5120 Кбит/с, 1920x1080, 25,000 кадр/с
Звук: Русский (AC3, 2 ch, 256 Кбит/с)
Субтитры: Нет
Семпл
General
Unique ID : 220400989289423005630691745761842043991 (0xA5CFAFBEC26636AC8F770AD671B21C57)
Complete name : D:uTorrentKolobanga.privet.internet.2017.WEB-DLRip.1080p.MediaClub.mkv
Format : Matroska
Format version : Version 4 / Version 2
File size : 3.35 GiB
Duration : 1 h 29 min
Overall bit rate : 5 352 kb/s
Encoded date : UTC 2018-01-23 10:38:07
Writing application : mkvmerge v17.0.0 ('Be Ur Friend') 64-bit
Writing library : libebml v1.3.5 + libmatroska v1.4.8
Video
ID : 1
Format : AVC
Format/Info : Advanced Video Codec
Format profile : [email protected]
Format settings : CABAC / 4 Ref Frames
Format settings, CABAC : Yes
Format settings, RefFrames : 4 frames
Format settings, GOP : M=7, N=50
Codec ID : V_MPEG4/ISO/AVC
Duration : 1 h 29 min
Bit rate : 5 120 kb/s
Width : 1 920 pixels
Height : 1 080 pixels
Display aspect ratio : 16:9
Frame rate mode : Constant
Frame rate : 25.000 FPS
Color space : YUV
Chroma subsampling : 4:2:0
Bit depth : 8 bits
Scan type : Progressive
Bits/(Pixel*Frame) : 0.099
Stream size : 3.19 GiB (95%)
Title : WEB-DLRip by Silverok
Writing library : x264 core 142
Encoding settings : cabac=1 / ref=3 / deblock=1:0:0 / analyse=0x3:0x113 / me=hex / subme=7 / psy=1 / psy_rd=1.00:0.00 / mixed_ref=1 / me_range=16 / chroma_me=1 / trellis=1 / 8x8dct=1 / cqm=0 / deadzone=21,11 / fast_pskip=1 / chroma_qp_offset=-2 / threads=36 / lookahead_threads=6 / sliced_threads=0 / nr=0 / decimate=1 / interlaced=0 / bluray_compat=0 / constrained_intra=0 / bframes=6 / b_pyramid=2 / b_adapt=1 / b_bias=0 / direct=1 / weightb=1 / open_gop=0 / weightp=2 / keyint=50 / keyint_min=26 / scenecut=0 / intra_refresh=0 / rc_lookahead=40 / rc=2pass / mbtree=1 / bitrate=5120 / ratetol=1.0 / qcomp=0.60 / qpmin=0 / qpmax=69 / qpstep=4 / cplxblur=20.0 / qblur=0.5 / vbv_maxrate=7680 / vbv_bufsize=20480 / nal_hrd=none / filler=0 / ip_ratio=1.40 / aq=1:1.00
Default : Yes
Forced : No
Audio
ID : 2
Format : AC-3
Format/Info : Audio Coding 3
Codec ID : A_AC3
Duration : 1 h 29 min
Bit rate mode : Constant
Bit rate : 256 kb/s
Channel(s) : 2 channels
Channel positions : Front: L R
Sampling rate : 48.0 kHz
Frame rate : 31.250 FPS (1536 SPF)
Bit depth : 16 bits
Compression mode : Lossy
Stream size : 164 MiB (5%)
Language : Russian
Service kind : Complete Main
Default : Yes
Forced : No


Релиз от: | Silverok



   Похожие торренты   Торрент   Размер 
В этой теме нет новых непрочитанных сообщений. Колобанга. Привет, Интернет! (2017) WEB-DLRip

953 | 36

1.24 ГБ

В этой теме нет новых непрочитанных сообщений. Колобанга. Привет, Интернет! (Александр Романец, Вячеслав Марченко) [2017, Мультфильм, приключения, комедия, детектив, WEB-DLRip-AVC]

41 | 2

1.79 ГБ

В этой теме нет новых непрочитанных сообщений. Колобанга. Только для пользователей интернета [s01,s02] (2015-2016) WEB-DLRip 1080p от ExKinoRay

29 | 4

5.75 ГБ

В этой теме нет новых непрочитанных сообщений. Привет от аиста [01 из 02] (2017) HDTVRip 720p от MediaClub

27 | 1

4.65 ГБ

В этой теме нет новых непрочитанных сообщений. Интернет Шоу (2012) WEB-DLRip 1080p

3 | 2

582.59 МБ

В этой теме нет новых непрочитанных сообщений. Привет от аиста [01-02 из 02] (2017) WEB-DLRip-AVC от Files-x

7 | 3

2.27 ГБ

В этой теме нет новых непрочитанных сообщений. Колобанга. Только для пользователей интернета [s01,s02] (2015-2016) WEB-DLRip от ExKinoRay

40 | 5

3.94 ГБ




Вы не можете начинать темы
Вы не можете отвечать на сообщения
Вы не можете редактировать свои сообщения
Вы не можете удалять свои сообщения
Вы не можете добавлять вложения

Перейти:  
Для Мосгорсуда, Роскомнадзора и рекламодателей: mosgorsud-torrent[собачка]yandex.ru
 Вход
ppkBB3cker v.2 © 2008-2014 @ PPK
[ Time : 0.398s | 19 Queries | GZIP : Off ]

cron