img image001 image001 image001 image001 image001 image001 image001 image001 image001 image001 image001 image001 image001 image001 image001 image001
Planets Sun Sun Sun
Статистика раздачи
Автор: Nickolas3434 | Размер: 12.61 ГБ | Добавлен: 28 янв 2018
Раздают: 57    Качают: 19
Скачать торрент
Скачать торрент
Описание торрента

СообщениеДобавлено: 28 янв 2018 

Данный релиз сделан на основе 16-го обновления с применением технологии HEVC.Учтите что не каждое медиаустройство или плеер способен воспроизводить данный формат.Обязательно проверьте сэмпл на своем оборудовании перед скачиванием релиза.


Год выпуска: 2002
Страна: США
Жанр: мультфильм, фэнтези, комедия, приключения, семейный
Продолжительность: 01:21:09
Перевод: Дубляж, Оригинал
Субтитры: Русские (полные), Английские (полные)
Режиссер: Крис Уэдж , Карлос Салдана

В ролях: Рэй Романо (Manfred), Джон Легуизамо (Sid), Дэнис Лири (Diego), Горан Вишнич (Soto), Джек Блэк (Zeke), Седрик «Развлекатель» (Carl), Стивен Рут (Frank), Дидрих Бадер (Oscar), Алан Тьюдик (Lenny), Лорри Бэгли (Jennifer), Джейн Краковски (Rachel), Питер Экерман (Dodo)
Описание: Веселые и опасные приключения героев. 20 тыс. лет назад. Чтобы избежать приближающегося из-за наступления ледникового периода холода, животные мигрируют на юг. Однако некоторые из них все-таки решают остаться - одинокий, угрюмый мамонт Манфред, а также бесшабашный ленивец Сид.
Случайно эта парочка наталкивается на человеческого детеныша. Они решаются вернуть его людям и отправляются в путешествие. По пути они встречают саблезубого хитрого тигра. И теперь этой веселой компании предстоят забавные приключения!
Качество: BDRip 720p / 60 FPS by Tiberiumsun69
Формат: MKV
Видео кодек: H.265
Аудио кодек: AC3
Видео: HEVC, 1280x696 (1.85:1), 3000 kbps, 60.000 fps, 0.056 bpp
Аудио#1: AC3 / 5.1 / 48 kHz / 640 kbps / 16 bit | DUB - Blu-ray CEE
Аудио#2: AC3 / 5.1 / 48 kHz / 640 kbps / 16 bit | Original




Encoding video to: F:Temp006.265
x265 10-bit depth 3000kbps 1280x696 59.995fps (291831 frames)
avs4x26x.exe: -L x265_10b.exe "F:Temp006.avs" --bitrate 3000 --preset medium --profile main10 --level-idc 4.0 --sar 1:1 --output "F:Temp006.265"
yuv [info]: 1280x696 fps 11999/200 i420p8 sar 1:1 unknown frame count
raw [info]: output file: F:Temp006.265
x265 [info]: HEVC encoder version 2.6+31-3712d13c09bf
x265 [info]: build info [Windows][MSVC 1912][64 bit] 10bit
x265 [info]: using cpu capabilities: MMX2 SSE2Fast LZCNT SSSE3 SSE4.2 AVX FMA3 BMI2 AVX2
x265 [info]: Main 10 profile, Level-4 (Main tier)
x265 [info]: Thread pool created using 8 threads
x265 [info]: Slices : 1
x265 [info]: frame threads / pool features : 3 / wpp(11 rows)
x265 [warning]: Source height < 720p; disabling lookahead-slices
x265 [info]: Coding QT: max CU size, min CU size : 64 / 8
x265 [info]: Residual QT: max TU size, max depth : 32 / 1 inter / 1 intra
x265 [info]: ME / range / subpel / merge : hex / 57 / 2 / 2
x265 [info]: Keyframe min / max / scenecut / bias: 25 / 250 / 40 / 5.00
x265 [info]: Lookahead / bframes / badapt : 20 / 4 / 2
x265 [info]: b-pyramid / weightp / weightb : 1 / 1 / 0
x265 [info]: References / ref-limit cu / depth : 3 / on / on
x265 [info]: AQ: mode / str / qg-size / cu-tree : 1 / 1.0 / 32 / 1
x265 [info]: Rate Control / qCompress : ABR-3000 kbps / 0.60
x265 [info]: tools: rd=3 psy-rd=2.00 rskip signhide tmvp strong-intra-smoothing
x265 [info]: tools: deblock sao
x265 [info]: frame I: 1684, Avg QP:15.85 kb/s: 26231.70
x265 [info]: frame P: 71430, Avg QP:15.92 kb/s: 8434.80
x265 [info]: frame B: 218717, Avg QP:22.94 kb/s: 1043.18
x265 [info]: Weighted P-Frames: Y:5.3% UV:4.1%
x265 [info]: consecutive B-frames: 4.2% 3.4% 6.5% 61.0% 24.9%
encoded 291831 frames in 16554.98s (17.63 fps), 2997.74 kb/s, Avg QP:21.18
avs [info]: AviSynth 2.60, build:Feb 20 2015 [03:16:45]
avs [info]: Video colorspace: YV12
avs [info]: Video resolution: 1280x696
avs [info]: Video framerate: 11999/200
avs [info]: Video framecount: 291831
avs4x26x [info]: "x265_10b.exe" - --bitrate 3000 --preset medium --profile main10 --level-idc 4.0 --sar 1:1 --output F:Temp006.265 --frames 291831 --fps 11999/200 --input-res 1280x696 --input-csp i420

General
Unique ID : 49878999922698715944568808642147568382 (0x258658907D165809C08395509800CAFE)
Complete name : F:ТоррентыЛедниковый период BDRip-HEVC 720p 60fps1. Ледниковый период.mkv
Format : Matroska
Format version : Version 4 / Version 2
File size : 2.43 GiB
Duration : 1 h 21 min
Overall bit rate : 4 281 kb/s
Movie name : Ice Age (2002) by Tiberiumsun69
Encoded date : UTC 2018-01-24 14:41:47
Writing application : mkvmerge v20.0.0 ('I Am The Sun') 64-bit
Writing library : libebml v1.3.5 + libmatroska v1.4.8
Video
ID : 1
Format : HEVC
Format/Info : High Efficiency Video Coding
Format profile : Main [email protected]@Main
Codec ID : V_MPEGH/ISO/HEVC
Duration : 1 h 21 min
Bit rate : 3 000 kb/s
Width : 1 280 pixels
Height : 696 pixels
Display aspect ratio : 1.85:1
Frame rate mode : Constant
Frame rate : 60.000 FPS
Color space : YUV
Chroma subsampling : 4:2:0
Bit depth : 10 bits
Bits/(Pixel*Frame) : 0.056
Stream size : 1.70 GiB (70%)
Default : Yes
Forced : No
Audio #1
ID : 2
Format : AC-3
Format/Info : Audio Coding 3
Codec ID : A_AC3
Duration : 1 h 21 min
Bit rate mode : Constant
Bit rate : 640 kb/s
Channel(s) : 6 channels
Channel positions : Front: L C R, Side: L R, LFE
Sampling rate : 48.0 kHz
Frame rate : 31.250 FPS (1536 SPF)
Bit depth : 16 bits
Compression mode : Lossy
Stream size : 371 MiB (15%)
Title : Dub
Language : Russian
Service kind : Complete Main
Default : Yes
Forced : No
Audio #2
ID : 3
Format : AC-3
Format/Info : Audio Coding 3
Codec ID : A_AC3
Duration : 1 h 21 min
Bit rate mode : Constant
Bit rate : 640 kb/s
Channel(s) : 6 channels
Channel positions : Front: L C R, Side: L R, LFE
Sampling rate : 48.0 kHz
Frame rate : 31.250 FPS (1536 SPF)
Bit depth : 16 bits
Compression mode : Lossy
Stream size : 371 MiB (15%)
Title : Original
Language : English
Service kind : Complete Main
Default : No
Forced : No
Text #1
ID : 4
Format : UTF-8
Codec ID : S_TEXT/UTF8
Codec ID/Info : UTF-8 Plain Text
Duration : 1 h 9 min
Bit rate : 67 b/s
Count of elements : 535
Stream size : 34.4 KiB (0%)
Title : Full
Language : Russian
Default : No
Forced : No
Text #2
ID : 5
Format : UTF-8
Codec ID : S_TEXT/UTF8
Codec ID/Info : UTF-8 Plain Text
Duration : 1 h 9 min
Bit rate : 42 b/s
Count of elements : 575
Stream size : 21.9 KiB (0%)
Title : Full
Language : English
Default : No
Forced : No
Menu
00:00:00.000 : en:00:00:00.000
00:03:52.441 : en:00:03:52.441
00:05:21.363 : en:00:05:21.363
00:09:31.488 : en:00:09:31.488
00:14:41.672 : en:00:14:41.672
00:17:47.775 : en:00:17:47.775
00:25:23.689 : en:00:25:23.689
00:27:41.326 : en:00:27:41.326
00:31:26.802 : en:00:31:26.802
00:34:59.931 : en:00:34:59.931
00:42:27.336 : en:00:42:27.336
00:48:15.476 : en:00:48:15.476
00:51:49.982 : en:00:51:49.982
00:53:00.052 : en:00:53:00.052
00:56:03.443 : en:00:56:03.443
00:57:05.881 : en:00:57:05.881
01:00:22.118 : en:01:00:22.118
01:08:13.756 : en:01:08:13.756
01:13:31.824 : en:01:13:31.824
01:15:26.480 : en:01:15:26.480



Год выпуска: 2006
Страна: США
Жанр: мультфильм, фэнтези, комедия, приключения, семейный
Продолжительность: 01:30:36
Перевод: Дубляж, Оригинал
Субтитры: Русские (полные), Английские (полные)
Режиссер: Карлос Салдана

В ролях: Рэй Романо (Manny), Джон Легуизамо (Sid), Дэнис Лири (Diego), Шонн Уильям Скотт (Crash), Джош Пек (Eddie), Куин Латифа (Ellie), Уилл Арнетт (Lone Gunslinger Vulture), Джей Лено (Fast Tony), Крис Уэдж (Scrat), Питер Экерман (Dung Beetle Dad), Кэйтлин Роуз Андерсон (Glypto Boy Billy), Коннор Андерсон (Rhino Boy)
Описание: Саблезубый тигр Диего, мамонт Манфред, грызун Скрэт и ленивец Сид дожили до глобального потепления. С одной стороны, это круто - ледяная пустыня превратилась в настоящий аквапарк, где можно принимать теплые ванны и резвиться под сенью струй. С другой - не очень: стремительный паводок идет прямиком к их родной долине.
Качество: BDRip 720p / 60 FPS by Tiberiumsun69
Формат: MKV
Видео кодек: H.265
Аудио кодек: AC3
Видео: HEVC, 1280x688 (1.85:1), 3000 kbps, 60.000 fps, 0.056 bpp
Аудио#1: AC3 / 5.1 / 48 kHz / 640 kbps / 16 bit | DUB - Blu-ray CEE
Аудио#2: AC3 / 5.1 / 48 kHz / 640 kbps / 16 bit | Original




Encoding video to: F:Temp010.265
x265 10-bit depth 3000kbps 1280x688 59.997fps (326161 frames)
avs4x26x.exe: -L x265_10b.exe "F:Temp010.avs" --bitrate 3000 --preset medium --profile main10 --level-idc 4.0 --sar 1:1 --output "F:Temp010.265"
yuv [info]: 1280x688 fps 40018/667 i420p8 sar 1:1 unknown frame count
raw [info]: output file: F:Temp010.265
x265 [info]: HEVC encoder version 2.6+31-3712d13c09bf
x265 [info]: build info [Windows][MSVC 1912][64 bit] 10bit
x265 [info]: using cpu capabilities: MMX2 SSE2Fast LZCNT SSSE3 SSE4.2 AVX FMA3 BMI2 AVX2
x265 [info]: Main 10 profile, Level-4 (Main tier)
x265 [info]: Thread pool created using 8 threads
x265 [info]: Slices : 1
x265 [info]: frame threads / pool features : 3 / wpp(11 rows)
x265 [warning]: Source height < 720p; disabling lookahead-slices
x265 [info]: Coding QT: max CU size, min CU size : 64 / 8
x265 [info]: Residual QT: max TU size, max depth : 32 / 1 inter / 1 intra
x265 [info]: ME / range / subpel / merge : hex / 57 / 2 / 2
x265 [info]: Keyframe min / max / scenecut / bias: 25 / 250 / 40 / 5.00
x265 [info]: Lookahead / bframes / badapt : 20 / 4 / 2
x265 [info]: b-pyramid / weightp / weightb : 1 / 1 / 0
x265 [info]: References / ref-limit cu / depth : 3 / on / on
x265 [info]: AQ: mode / str / qg-size / cu-tree : 1 / 1.0 / 32 / 1
x265 [info]: Rate Control / qCompress : ABR-3000 kbps / 0.60
x265 [info]: tools: rd=3 psy-rd=2.00 rskip signhide tmvp strong-intra-smoothing
x265 [info]: tools: deblock sao
x265 [info]: frame I: 1826, Avg QP:16.74 kb/s: 26450.19
x265 [info]: frame P: 81862, Avg QP:16.74 kb/s: 8258.81
x265 [info]: frame B: 242473, Avg QP:24.23 kb/s: 1012.11
x265 [info]: Weighted P-Frames: Y:3.8% UV:3.1%
x265 [info]: consecutive B-frames: 3.9% 2.9% 7.2% 71.7% 14.3%
encoded 326161 frames in 15920.84s (20.49 fps), 2973.35 kb/s, Avg QP:22.31
avs [info]: AviSynth 2.60, build:Feb 20 2015 [03:16:45]
avs [info]: Video colorspace: YV12
avs [info]: Video resolution: 1280x688
avs [info]: Video framerate: 40018/667
avs [info]: Video framecount: 326161
avs4x26x [info]: "x265_10b.exe" - --bitrate 3000 --preset medium --profile main10 --level-idc 4.0 --sar 1:1 --output F:Temp010.265 --frames 326161 --fps 40018/667 --input-res 1280x688 --input-csp i420

General
Unique ID : 133227255619200385515362200512651534594 (0x643AA2D77C68F926A35133DE8ADB2102)
Complete name : F:ТоррентыЛедниковый период BDRip-HEVC 720p 60fps3. Ледниковый период 3 Эра динозавров.mkv
Format : Matroska
Format version : Version 4 / Version 2
File size : 2.80 GiB
Duration : 1 h 34 min
Overall bit rate : 4 265 kb/s
Movie name : Ice Age: Dawn of the Dinosaurs (2009) by Tiberiumsun69
Encoded date : UTC 2018-01-24 15:13:54
Writing application : mkvmerge v20.0.0 ('I Am The Sun') 64-bit
Writing library : libebml v1.3.5 + libmatroska v1.4.8
Video
ID : 1
Format : HEVC
Format/Info : High Efficiency Video Coding
Format profile : Main [email protected]@Main
Codec ID : V_MPEGH/ISO/HEVC
Duration : 1 h 34 min
Bit rate : 2 981 kb/s
Width : 1 280 pixels
Height : 688 pixels
Display aspect ratio : 1.85:1
Frame rate mode : Constant
Frame rate : 60.000 FPS
Color space : YUV
Chroma subsampling : 4:2:0
Bit depth : 10 bits
Bits/(Pixel*Frame) : 0.056
Stream size : 1.96 GiB (70%)
Default : Yes
Forced : No
Audio #1
ID : 2
Format : AC-3
Format/Info : Audio Coding 3
Codec ID : A_AC3
Duration : 1 h 34 min
Bit rate mode : Constant
Bit rate : 640 kb/s
Channel(s) : 6 channels
Channel positions : Front: L C R, Side: L R, LFE
Sampling rate : 48.0 kHz
Frame rate : 31.250 FPS (1536 SPF)
Bit depth : 16 bits
Compression mode : Lossy
Stream size : 431 MiB (15%)
Title : Dub
Language : Russian
Service kind : Complete Main
Default : Yes
Forced : No
Audio #2
ID : 3
Format : AC-3
Format/Info : Audio Coding 3
Codec ID : A_AC3
Duration : 1 h 34 min
Bit rate mode : Constant
Bit rate : 640 kb/s
Channel(s) : 6 channels
Channel positions : Front: L C R, Side: L R, LFE
Sampling rate : 48.0 kHz
Frame rate : 31.250 FPS (1536 SPF)
Bit depth : 16 bits
Compression mode : Lossy
Stream size : 431 MiB (15%)
Title : Original
Language : English
Service kind : Complete Main
Default : No
Forced : No
Text #1
ID : 4
Format : UTF-8
Codec ID : S_TEXT/UTF8
Codec ID/Info : UTF-8 Plain Text
Duration : 1 h 23 min
Bit rate : 60 b/s
Count of elements : 816
Stream size : 37.0 KiB (0%)
Title : Full
Language : Russian
Default : No
Forced : No
Text #2
ID : 5
Format : UTF-8
Codec ID : S_TEXT/UTF8
Codec ID/Info : UTF-8 Plain Text
Duration : 1 h 20 min
Bit rate : 43 b/s
Count of elements : 627
Stream size : 25.7 KiB (0%)
Title : Full
Language : English
Default : No
Forced : No
Menu
00:00:00.000 : en:00:00:00.000
00:03:10.816 : en:00:03:10.816
00:10:38.847 : en:00:10:38.847
00:16:05.631 : en:00:16:05.631
00:20:00.449 : en:00:20:00.449
00:24:07.655 : en:00:24:07.655
00:27:29.648 : en:00:27:29.648
00:31:47.572 : en:00:31:47.572
00:36:10.668 : en:00:36:10.668
00:41:11.594 : en:00:41:11.594
00:48:29.073 : en:00:48:29.073
00:50:46.335 : en:00:50:46.335
00:57:03.003 : en:00:57:03.003
00:58:06.149 : en:00:58:06.149
01:03:11.287 : en:01:03:11.287
01:08:05.039 : en:01:08:05.039
01:11:37.043 : en:01:11:37.043
01:16:00.306 : en:01:16:00.306
01:21:05.069 : en:01:21:05.069
01:26:50.122 : en:01:26:50.122


Год выпуска: 2009
Страна: США
Жанр: мультфильм, фэнтези, комедия, приключения, семейный
Продолжительность: 01:34:03
Перевод: Дубляж, Оригинал
Субтитры: Русские (полные), Английские (полные)
Режиссер: Карлос Салдана , Майк Тёрмайер

В ролях: Рэй Романо (Manny), Джон Легуизамо (Sid), Саймон Пегг (Buck), Куин Латифа (Ellie), Шонн Уильям Скотт (Crash), Джош Пек (Eddie), Дэнис Лири (Diego), Крис Уэдж (Scrat), Юнис Чо (Madison (Diatryma Girl)), Карен Дишер (Scratte), Харрисон Фан (Glypto Boy), Майли Флэнеген (Aardvark Mom)
Описание: К событиям «Ледникового периода 3» жизнь главных героев мультфильма потерпела некоторые изменения. Мамонты Манфред и Элли ожидают появление на свет своего детёныша; саблезубый тигр Диего впал в раздумье о том, не стал ли он слишком «мягкотелым» в компании своих друзей; ленивец Сид, бредя желанием создать собственное племя, решился украсть несколько яиц динозавра. Отправившись спасать Сида, друзья попадают в таинственный растительный мир, скрытый под толщами льда, где они сталкиваются с динозаврами и агрессивной окружающей средой, а также знакомятся с охотником на динозавров — лаской по имени Бак.
Качество: BDRip 720p / 60 FPS by Tiberiumsun69
Формат: MKV
Видео кодек: H.265
Аудио кодек: AC3
Видео: HEVC, 1280x688 (1.85:1), 3000 kbps, 60.000 fps, 0.056 bpp
Аудио#1: AC3 / 5.1 / 48 kHz / 640 kbps / 16 bit | DUB - Blu-ray CEE
Аудио#2: AC3 / 5.1 / 48 kHz / 640 kbps / 16 bit | Original




Encoding video to: F:Temp014.265
x265 10-bit depth 3000kbps 1280x688 59.992fps (338551 frames)
avs4x26x.exe: -L x265_10b.exe "F:Temp014.avs" --bitrate 3000 --preset medium --profile main10 --level-idc 4.0 --sar 1:1 --output "F:Temp014.265"
yuv [info]: 1280x688 fps 7499/125 i420p8 sar 1:1 unknown frame count
raw [info]: output file: F:Temp014.265
x265 [info]: HEVC encoder version 2.6+31-3712d13c09bf
x265 [info]: build info [Windows][MSVC 1912][64 bit] 10bit
x265 [info]: using cpu capabilities: MMX2 SSE2Fast LZCNT SSSE3 SSE4.2 AVX FMA3 BMI2 AVX2
x265 [info]: Main 10 profile, Level-4 (Main tier)
x265 [info]: Thread pool created using 8 threads
x265 [info]: Slices : 1
x265 [info]: frame threads / pool features : 3 / wpp(11 rows)
x265 [warning]: Source height < 720p; disabling lookahead-slices
x265 [info]: Coding QT: max CU size, min CU size : 64 / 8
x265 [info]: Residual QT: max TU size, max depth : 32 / 1 inter / 1 intra
x265 [info]: ME / range / subpel / merge : hex / 57 / 2 / 2
x265 [info]: Keyframe min / max / scenecut / bias: 25 / 250 / 40 / 5.00
x265 [info]: Lookahead / bframes / badapt : 20 / 4 / 2
x265 [info]: b-pyramid / weightp / weightb : 1 / 1 / 0
x265 [info]: References / ref-limit cu / depth : 3 / on / on
x265 [info]: AQ: mode / str / qg-size / cu-tree : 1 / 1.0 / 32 / 1
x265 [info]: Rate Control / qCompress : ABR-3000 kbps / 0.60
x265 [info]: tools: rd=3 psy-rd=2.00 rskip signhide tmvp strong-intra-smoothing
x265 [info]: tools: deblock sao
x265 [info]: frame I: 1900, Avg QP:18.01 kb/s: 32015.45
x265 [info]: frame P: 83597, Avg QP:18.29 kb/s: 8395.92
x265 [info]: frame B: 253054, Avg QP:25.22 kb/s: 971.09
x265 [info]: Weighted P-Frames: Y:3.9% UV:3.0%
x265 [info]: consecutive B-frames: 3.2% 2.9% 5.8% 70.9% 17.2%
encoded 338551 frames in 17445.37s (19.41 fps), 2978.70 kb/s, Avg QP:23.47
avs [info]: AviSynth 2.60, build:Feb 20 2015 [03:16:45]
avs [info]: Video colorspace: YV12
avs [info]: Video resolution: 1280x688
avs [info]: Video framerate: 7499/125
avs [info]: Video framecount: 338551
avs4x26x [info]: "x265_10b.exe" - --bitrate 3000 --preset medium --profile main10 --level-idc 4.0 --sar 1:1 --output F:Temp014.265 --frames 338551 --fps 7499/125 --input-res 1280x688 --input-csp i420

General
Unique ID : 133227255619200385515362200512651534594 (0x643AA2D77C68F926A35133DE8ADB2102)
Complete name : F:ТоррентыЛедниковый период BDRip-HEVC 720p 60fps3. Ледниковый период 3 Эра динозавров.mkv
Format : Matroska
Format version : Version 4 / Version 2
File size : 2.80 GiB
Duration : 1 h 34 min
Overall bit rate : 4 265 kb/s
Movie name : Ice Age: Dawn of the Dinosaurs (2009) by Tiberiumsun69
Encoded date : UTC 2018-01-24 15:13:54
Writing application : mkvmerge v20.0.0 ('I Am The Sun') 64-bit
Writing library : libebml v1.3.5 + libmatroska v1.4.8
Video
ID : 1
Format : HEVC
Format/Info : High Efficiency Video Coding
Format profile : Main [email protected]@Main
Codec ID : V_MPEGH/ISO/HEVC
Duration : 1 h 34 min
Bit rate : 2 981 kb/s
Width : 1 280 pixels
Height : 688 pixels
Display aspect ratio : 1.85:1
Frame rate mode : Constant
Frame rate : 60.000 FPS
Color space : YUV
Chroma subsampling : 4:2:0
Bit depth : 10 bits
Bits/(Pixel*Frame) : 0.056
Stream size : 1.96 GiB (70%)
Default : Yes
Forced : No
Audio #1
ID : 2
Format : AC-3
Format/Info : Audio Coding 3
Codec ID : A_AC3
Duration : 1 h 34 min
Bit rate mode : Constant
Bit rate : 640 kb/s
Channel(s) : 6 channels
Channel positions : Front: L C R, Side: L R, LFE
Sampling rate : 48.0 kHz
Frame rate : 31.250 FPS (1536 SPF)
Bit depth : 16 bits
Compression mode : Lossy
Stream size : 431 MiB (15%)
Title : Dub
Language : Russian
Service kind : Complete Main
Default : Yes
Forced : No
Audio #2
ID : 3
Format : AC-3
Format/Info : Audio Coding 3
Codec ID : A_AC3
Duration : 1 h 34 min
Bit rate mode : Constant
Bit rate : 640 kb/s
Channel(s) : 6 channels
Channel positions : Front: L C R, Side: L R, LFE
Sampling rate : 48.0 kHz
Frame rate : 31.250 FPS (1536 SPF)
Bit depth : 16 bits
Compression mode : Lossy
Stream size : 431 MiB (15%)
Title : Original
Language : English
Service kind : Complete Main
Default : No
Forced : No
Text #1
ID : 4
Format : UTF-8
Codec ID : S_TEXT/UTF8
Codec ID/Info : UTF-8 Plain Text
Duration : 1 h 23 min
Bit rate : 60 b/s
Count of elements : 816
Stream size : 37.0 KiB (0%)
Title : Full
Language : Russian
Default : No
Forced : No
Text #2
ID : 5
Format : UTF-8
Codec ID : S_TEXT/UTF8
Codec ID/Info : UTF-8 Plain Text
Duration : 1 h 20 min
Bit rate : 43 b/s
Count of elements : 627
Stream size : 25.7 KiB (0%)
Title : Full
Language : English
Default : No
Forced : No
Menu
00:00:00.000 : en:00:00:00.000
00:03:10.816 : en:00:03:10.816
00:10:38.847 : en:00:10:38.847
00:16:05.631 : en:00:16:05.631
00:20:00.449 : en:00:20:00.449
00:24:07.655 : en:00:24:07.655
00:27:29.648 : en:00:27:29.648
00:31:47.572 : en:00:31:47.572
00:36:10.668 : en:00:36:10.668
00:41:11.594 : en:00:41:11.594
00:48:29.073 : en:00:48:29.073
00:50:46.335 : en:00:50:46.335
00:57:03.003 : en:00:57:03.003
00:58:06.149 : en:00:58:06.149
01:03:11.287 : en:01:03:11.287
01:08:05.039 : en:01:08:05.039
01:11:37.043 : en:01:11:37.043
01:16:00.306 : en:01:16:00.306
01:21:05.069 : en:01:21:05.069
01:26:50.122 : en:01:26:50.122


Год выпуска: 2012
Страна: США
Жанр: мультфильм, фэнтези, комедия, приключения, семейный
Продолжительность: 01:27:45
Перевод: Дубляж, Оригинал
Субтитры: Русские (полные), Английские (полные)
Режиссер: Карлос Салдана , Майк Тёрмайер

В ролях: Рэй Романо (Manny, озвучка), Джон Легуизамо (Sid, озвучка), Куин Латифа (Ellie, озвучка), Дэнис Лири (Diego, озвучка), Джош Пек (Eddie, озвучка), Питер Динклэйдж (Captain Gutt, озвучка), Кеке Палмер (Peaches, озвучка), Дженнифер Лопез (Shira, озвучка), Ник Фрост (Flynn, озвучка), Азиз Ансари (Squint, озвучка), Джой Бехар (Eunice, озвучка), Кристофер Кэмпбелл (Creature Siren / Various, озвучка)
Описание: После приключений под землей прошло семь лет. Случился дрейф континентов. Главные герои мультфильма, отделённые от стада, вынуждены использовать айсберг в качестве плота. Они пересекают океан и попадают в неизвестные им ранее земли с экзотическими животными и пиратами, враждебно настроенными к ним. Скрэту удаётся получить свой жёлудь, но он перемещается в новые для него земли.
Качество: BDRip 720p / 60 FPS by Tiberiumsun69
Формат: MKV
Видео кодек: H.265
Аудио кодек: AC3
Видео: HEVC, 1280x536 (2.40:1), 2500 kbps, 60.000 fps, 0.060 bpp
Аудио#1: AC3 / 5.1 / 48 kHz / 640 kbps / 16 bit | DUB - Blu-ray CEE
Аудио#2: AC3 / 5.1 / 48 kHz / 640 kbps / 16 bit | Original




Encoding video to: F:Temp018.265
x265 10-bit depth 2500kbps 1280x536 59.979fps (315801 frames)
avs4x26x.exe: -L x265_10b.exe "F:Temp018.avs" --bitrate 2500 --preset medium --profile main10 --level-idc 4.0 --sar 1:1 --output "F:Temp018.265"
yuv [info]: 1280x536 fps 400000/6669 i420p8 sar 1:1 unknown frame count
raw [info]: output file: F:Temp018.265
x265 [info]: HEVC encoder version 2.6+31-3712d13c09bf
x265 [info]: build info [Windows][MSVC 1912][64 bit] 10bit
x265 [info]: using cpu capabilities: MMX2 SSE2Fast LZCNT SSSE3 SSE4.2 AVX FMA3 BMI2 AVX2
x265 [info]: Main 10 profile, Level-4 (Main tier)
x265 [info]: Thread pool created using 8 threads
x265 [info]: Slices : 1
x265 [info]: frame threads / pool features : 3 / wpp(9 rows)
x265 [warning]: Source height < 720p; disabling lookahead-slices
x265 [info]: Coding QT: max CU size, min CU size : 64 / 8
x265 [info]: Residual QT: max TU size, max depth : 32 / 1 inter / 1 intra
x265 [info]: ME / range / subpel / merge : hex / 57 / 2 / 2
x265 [info]: Keyframe min / max / scenecut / bias: 25 / 250 / 40 / 5.00
x265 [info]: Lookahead / bframes / badapt : 20 / 4 / 2
x265 [info]: b-pyramid / weightp / weightb : 1 / 1 / 0
x265 [info]: References / ref-limit cu / depth : 3 / on / on
x265 [info]: AQ: mode / str / qg-size / cu-tree : 1 / 1.0 / 32 / 1
x265 [info]: Rate Control / qCompress : ABR-2500 kbps / 0.60
x265 [info]: tools: rd=3 psy-rd=2.00 rskip signhide tmvp strong-intra-smoothing
x265 [info]: tools: deblock sao
x265 [info]: frame I: 1879, Avg QP:19.31 kb/s: 24364.07
x265 [info]: frame P: 77107, Avg QP:19.31 kb/s: 7175.89
x265 [info]: frame B: 236815, Avg QP:26.24 kb/s: 787.00
x265 [info]: Weighted P-Frames: Y:4.3% UV:3.6%
x265 [info]: consecutive B-frames: 4.6% 3.3% 5.4% 61.2% 25.5%
encoded 315801 frames in 8173.60s (38.64 fps), 2487.22 kb/s, Avg QP:24.50
avs [info]: AviSynth 2.60, build:Feb 20 2015 [03:16:45]
avs [info]: Video colorspace: YV12
avs [info]: Video resolution: 1280x536
avs [info]: Video framerate: 400000/6669
avs [info]: Video framecount: 315801
avs4x26x [info]: "x265_10b.exe" - --bitrate 2500 --preset medium --profile main10 --level-idc 4.0 --sar 1:1 --output F:Temp018.265 --frames 315801 --fps 400000/6669 --input-res 1280x536 --input-csp i420

General
Unique ID : 178436328715512643460947313260300275148 (0x863D963CB7A32679A921CADB0EC70DCC)
Complete name : F:ТоррентыЛедниковый период BDRip-HEVC 720p 60fps4. Ледниковый период 4 Континентальный дрейф.mkv
Format : Matroska
Format version : Version 4 / Version 2
File size : 2.31 GiB
Duration : 1 h 27 min
Overall bit rate : 3 773 kb/s
Movie name : Ice Age: Continental Drift (2012) by Tiberiumsun69
Encoded date : UTC 2018-01-24 14:58:12
Writing application : mkvmerge v20.0.0 ('I Am The Sun') 64-bit
Writing library : libebml v1.3.5 + libmatroska v1.4.8
Video
ID : 1
Format : HEVC
Format/Info : High Efficiency Video Coding
Format profile : Main [email protected]@Main
Codec ID : V_MPEGH/ISO/HEVC
Duration : 1 h 27 min
Bit rate : 2 489 kb/s
Width : 1 280 pixels
Height : 536 pixels
Display aspect ratio : 2.40:1
Frame rate mode : Constant
Frame rate : 60.000 FPS
Color space : YUV
Chroma subsampling : 4:2:0
Bit depth : 10 bits
Bits/(Pixel*Frame) : 0.060
Stream size : 1.53 GiB (66%)
Default : Yes
Forced : No
Audio #1
ID : 2
Format : AC-3
Format/Info : Audio Coding 3
Codec ID : A_AC3
Duration : 1 h 27 min
Bit rate mode : Constant
Bit rate : 640 kb/s
Channel(s) : 6 channels
Channel positions : Front: L C R, Side: L R, LFE
Sampling rate : 48.0 kHz
Frame rate : 31.250 FPS (1536 SPF)
Bit depth : 16 bits
Compression mode : Lossy
Stream size : 402 MiB (17%)
Title : Dub
Language : Russian
Service kind : Complete Main
Default : Yes
Forced : No
Audio #2
ID : 3
Format : AC-3
Format/Info : Audio Coding 3
Codec ID : A_AC3
Duration : 1 h 27 min
Bit rate mode : Constant
Bit rate : 640 kb/s
Channel(s) : 6 channels
Channel positions : Front: L C R, Side: L R, LFE
Sampling rate : 48.0 kHz
Frame rate : 31.250 FPS (1536 SPF)
Bit depth : 16 bits
Compression mode : Lossy
Stream size : 402 MiB (17%)
Title : Original
Language : English
Service kind : Complete Main
Default : No
Forced : No
Text #1
ID : 4
Format : UTF-8
Codec ID : S_TEXT/UTF8
Codec ID/Info : UTF-8 Plain Text
Duration : 1 h 26 min
Bit rate : 71 b/s
Count of elements : 1149
Stream size : 44.9 KiB (0%)
Title : Full
Language : Russian
Default : No
Forced : No
Text #2
ID : 5
Format : UTF-8
Codec ID : S_TEXT/UTF8
Codec ID/Info : UTF-8 Plain Text
Duration : 1 h 19 min
Bit rate : 54 b/s
Count of elements : 1144
Stream size : 31.4 KiB (0%)
Title : Full
Language : English
Default : No
Forced : No
Menu
00:00:00.000 : en:Chapter 01
00:03:24.037 : en:Chapter 02
00:05:07.223 : en:Chapter 03
00:09:33.406 : en:Chapter 04
00:13:08.704 : en:Chapter 05
00:15:55.329 : en:Chapter 06
00:18:22.643 : en:Chapter 07
00:22:23.717 : en:Chapter 08
00:25:56.555 : en:Chapter 09
00:29:17.964 : en:Chapter 10
00:32:57.600 : en:Chapter 11
00:36:14.380 : en:Chapter 12
00:38:41.652 : en:Chapter 13
00:43:48.709 : en:Chapter 14
00:45:29.643 : en:Chapter 15
00:49:38.976 : en:Chapter 16
00:53:49.476 : en:Chapter 17
00:57:22.856 : en:Chapter 18
01:02:31.038 : en:Chapter 19
01:08:08.334 : en:Chapter 20
01:11:10.474 : en:Chapter 21
01:13:14.640 : en:Chapter 22
01:16:53.400 : en:Chapter 23
01:19:23.633 : en:Chapter 24


Год выпуска: 2016
Страна: США
Жанр: мультфильм, фэнтези, комедия, приключения, семейный
Продолжительность: 01:34:32
Перевод: Дубляж, Оригинал
Субтитры: Русские (Форс, полные), Английские (Полные)
Режиссер: Майк Тёрмайер , Гален Т. Чу

В ролях: Рэй Романо (Manny, озвучка), Джон Легуизамо (Sid, озвучка), Куин Латифа (Ellie, озвучка), Дэнис Лири (Diego, озвучка), Джош Пек (Eddie, озвучка), Питер Динклэйдж (Captain Gutt, озвучка), Кеке Палмер (Peaches, озвучка), Дженнифер Лопез (Shira, озвучка), Ник Фрост (Flynn, озвучка), Азиз Ансари (Squint, озвучка), Джой Бехар (Eunice, озвучка), Кристофер Кэмпбелл (Creature Siren / Various, озвучка)
Описание: Отчаянная погоня за неуловимым желудем катапультирует Скрата прямо в космос, где он случайно запускает целую серию космических событий. Именно они изменят весь мир Ледникового периода и станут реальной угрозой для него. Чтобы спастись, Сид, Мэнни, Диего и остальные звери должны покинуть свои дома, отправиться в забавное и захватывающее приключение в экзотические новые земли и встретиться со множеством красочных новых персонажей.
Качество: BDRip 720p / 60 FPS by Tiberiumsun69
Формат: MKV
Видео кодек: H.265
Аудио кодек: AC3
Видео: HEVC, 1280x536 (2.40:1), 2500 kbps, 60.000 fps, 0.061 bpp
Аудио#1: AC3 / 5.1 / 48 kHz / 448 kbps / 16 bit | DUB - Blu-ray CEE
Аудио#2: AC3 / 5.1 / 48 kHz / 640 kbps / 16 bit | Original




Encoding video to: F:Temp016.265
x265 10-bit depth 2500kbps 1280x536 59.984fps (340246 frames)
avs4x26x.exe: -L x265_10b.exe "F:Temp016.avs" --bitrate 2500 --preset medium --profile main10 --level-idc 4.0 --sar 1:1 --output "F:Temp016.265"
yuv [info]: 1280x536 fps 7498/125 i420p8 sar 1:1 unknown frame count
raw [info]: output file: F:Temp016.265
x265 [info]: HEVC encoder version 2.6+31-3712d13c09bf
x265 [info]: build info [Windows][MSVC 1912][64 bit] 10bit
x265 [info]: using cpu capabilities: MMX2 SSE2Fast LZCNT SSSE3 SSE4.2 AVX FMA3 BMI2 AVX2
x265 [info]: Main 10 profile, Level-4 (Main tier)
x265 [info]: Thread pool created using 8 threads
x265 [info]: Slices : 1
x265 [info]: frame threads / pool features : 3 / wpp(9 rows)
x265 [warning]: Source height < 720p; disabling lookahead-slices
x265 [info]: Coding QT: max CU size, min CU size : 64 / 8
x265 [info]: Residual QT: max TU size, max depth : 32 / 1 inter / 1 intra
x265 [info]: ME / range / subpel / merge : hex / 57 / 2 / 2
x265 [info]: Keyframe min / max / scenecut / bias: 25 / 250 / 40 / 5.00
x265 [info]: Lookahead / bframes / badapt : 20 / 4 / 2
x265 [info]: b-pyramid / weightp / weightb : 1 / 1 / 0
x265 [info]: References / ref-limit cu / depth : 3 / on / on
x265 [info]: AQ: mode / str / qg-size / cu-tree : 1 / 1.0 / 32 / 1
x265 [info]: Rate Control / qCompress : ABR-2500 kbps / 0.60
x265 [info]: tools: rd=3 psy-rd=2.00 rskip signhide tmvp strong-intra-smoothing
x265 [info]: tools: deblock sao
x265 [info]: frame I: 1782, Avg QP:19.12 kb/s: 26806.27
x265 [info]: frame P: 85682, Avg QP:19.47 kb/s: 7024.29
x265 [info]: frame B: 252782, Avg QP:26.42 kb/s: 794.10
x265 [info]: Weighted P-Frames: Y:7.1% UV:6.1%
x265 [info]: consecutive B-frames: 3.2% 3.3% 6.6% 75.1% 11.8%
encoded 340246 frames in 14020.35s (24.27 fps), 2499.24 kb/s, Avg QP:24.63
avs [info]: AviSynth 2.60, build:Feb 20 2015 [03:16:45]
avs [info]: Video colorspace: YV12
avs [info]: Video resolution: 1280x536
avs [info]: Video framerate: 7498/125
avs [info]: Video framecount: 340246
avs4x26x [info]: "x265_10b.exe" - --bitrate 2500 --preset medium --profile main10 --level-idc 4.0 --sar 1:1 --output F:Temp016.265 --frames 340246 --fps 7498/125 --input-res 1280x536 --input-csp i420

General
Unique ID : 283251764075055441474514296486513926097 (0xD5184E30381A09DB4C4881E8FBACDFD1)
Complete name : F:ТоррентыЛедниковый период BDRip-HEVC 720p 60fps5. Ледниковый период Столкновение неизбежно.mkv
Format : Matroska
Format version : Version 4 / Version 2
File size : 2.37 GiB
Duration : 1 h 34 min
Overall bit rate : 3 593 kb/s
Movie name : Ice Age: Collision Course (2016) by Tiberiumsun69
Encoded date : UTC 2018-01-24 15:07:27
Writing application : mkvmerge v20.0.0 ('I Am The Sun') 64-bit
Writing library : libebml v1.3.5 + libmatroska v1.4.8
Video
ID : 1
Format : HEVC
Format/Info : High Efficiency Video Coding
Format profile : Main [email protected]@Main
Codec ID : V_MPEGH/ISO/HEVC
Duration : 1 h 34 min
Bit rate : 2 501 kb/s
Width : 1 280 pixels
Height : 536 pixels
Display aspect ratio : 2.40:1
Frame rate mode : Constant
Frame rate : 60.000 FPS
Color space : YUV
Chroma subsampling : 4:2:0
Bit depth : 10 bits
Bits/(Pixel*Frame) : 0.061
Stream size : 1.65 GiB (70%)
Default : Yes
Forced : No
Audio #1
ID : 2
Format : AC-3
Format/Info : Audio Coding 3
Codec ID : A_AC3
Duration : 1 h 34 min
Bit rate mode : Constant
Bit rate : 448 kb/s
Channel(s) : 6 channels
Channel positions : Front: L C R, Side: L R, LFE
Sampling rate : 48.0 kHz
Frame rate : 31.250 FPS (1536 SPF)
Bit depth : 16 bits
Compression mode : Lossy
Stream size : 303 MiB (12%)
Title : Dub
Language : Russian
Service kind : Complete Main
Default : Yes
Forced : No
Audio #2
ID : 3
Format : AC-3
Format/Info : Audio Coding 3
Codec ID : A_AC3
Duration : 1 h 34 min
Bit rate mode : Constant
Bit rate : 640 kb/s
Channel(s) : 6 channels
Channel positions : Front: L C R, Side: L R, LFE
Sampling rate : 48.0 kHz
Frame rate : 31.250 FPS (1536 SPF)
Bit depth : 16 bits
Compression mode : Lossy
Stream size : 432 MiB (18%)
Title : Original
Language : English
Service kind : Complete Main
Default : No
Forced : No
Text #1
ID : 4
Format : UTF-8
Codec ID : S_TEXT/UTF8
Codec ID/Info : UTF-8 Plain Text
Duration : 24 min 51 s
Bit rate : 0 b/s
Count of elements : 2
Stream size : 109 Bytes (0%)
Title : Forced
Language : Russian
Default : Yes
Forced : No
Text #2
ID : 5
Format : UTF-8
Codec ID : S_TEXT/UTF8
Codec ID/Info : UTF-8 Plain Text
Duration : 1 h 23 min
Bit rate : 99 b/s
Count of elements : 1221
Stream size : 61.1 KiB (0%)
Title : Full
Language : Russian
Default : No
Forced : No
Text #3
ID : 6
Format : UTF-8
Codec ID : S_TEXT/UTF8
Codec ID/Info : UTF-8 Plain Text
Duration : 1 h 23 min
Bit rate : 60 b/s
Count of elements : 1221
Stream size : 36.9 KiB (0%)
Title : Full
Language : English
Default : No
Forced : No
Menu
00:00:00.000 : en:00:00:00.000
00:03:09.106 : en:00:03:09.106
00:05:24.366 : en:00:05:24.366
00:09:06.087 : en:00:09:06.087
00:13:22.301 : en:00:13:22.301
00:18:05.751 : en:00:18:05.751
00:20:50.583 : en:00:20:50.583
00:23:10.306 : en:00:23:10.306
00:27:29.898 : en:00:27:29.898
00:30:15.981 : en:00:30:15.981
00:32:54.347 : en:00:32:54.347
00:36:13.588 : en:00:36:13.588
00:39:33.454 : en:00:39:33.454
00:42:58.701 : en:00:42:58.701
00:47:35.019 : en:00:47:35.019
00:51:11.735 : en:00:51:11.735
00:55:50.764 : en:00:55:50.764
01:01:09.457 : en:01:01:09.457
01:05:06.402 : en:01:05:06.402
01:09:39.300 : en:01:09:39.300
01:14:36.889 : en:01:14:36.889
01:17:41.532 : en:01:17:41.532
01:21:43.065 : en:01:21:43.065
01:24:46.498 : en:01:24:46.498



   Похожие торренты   Торрент   Размер 
В этой теме нет новых непрочитанных сообщений. Ледниковый период: Пенталогия / Ice Age: Pentology (2002-2016) BDRip 1080p от HELLYWOOD

68 | 19

34.77 ГБ

В этой теме нет новых непрочитанных сообщений. Ледниковый период: Пенталогия / Ice Age: Pentology (2002-2016) 5хDVD5 | D

7 | 9

21.76 ГБ

В этой теме нет новых непрочитанных сообщений. Ледниковый период: Квадрология / Ice Age: Quadrilogy (2002-2012) BDRip-AVC от R.G. HD-Films | 60 fps

938 | 254

15.4 ГБ

В этой теме нет новых непрочитанных сообщений. Ледниковый период: Антология / Ice Age: Antology (2002-2012) BDRip 1080p от R.G. HD-Films | 60 fps

254 | 126

39.48 ГБ

В этой теме нет новых непрочитанных сообщений. Пираты Карибского моря: Пенталогия / Pirates of the Caribbean: Pentology (2003-2017) BDRip-HEVC 1080p от ХиМиК | D

165 | 215

37.28 ГБ

В этой теме нет новых непрочитанных сообщений. Ледниковый период: Столкновение неизбежно / Ice Age: Collision Course (2016) BDRip HEVC 720р от SuperMin | D | Лицензия

12 | 4

2.27 ГБ

В этой теме нет новых непрочитанных сообщений. Ледниковый период / Ice Age (2002) 720p BDRip от HQCLUB

179 | 12

4.48 ГБ




Вы не можете начинать темы
Вы не можете отвечать на сообщения
Вы не можете редактировать свои сообщения
Вы не можете удалять свои сообщения
Вы не можете добавлять вложения

Перейти:  
Для Мосгорсуда, Роскомнадзора и рекламодателей: mosgorsud-torrent[собачка]yandex.ru
 Вход
ppkBB3cker v.2 © 2008-2014 @ PPK
[ Time : 0.057s | 17 Queries | GZIP : Off ]

cron