img image001 image001 image001 image001 image001 image001 image001 image001 image001 image001 image001 image001 image001 image001 image001 image001
Planets Sun Sun Sun
Статистика раздачи
Автор: Nickolas3434 | Размер: 16.95 ГБ | Добавлен: 28 янв 2018
Раздают: 0    Качают: 0
Скачать торрент
Скачать торрент
Описание торрента

СообщениеДобавлено: 28 янв 2018 

Информация о фильме
Название: Эмоджи фильм
Оригинальное название: The Emoji Movie
Год выхода: 2017
Жанр: Мультфильм, фантастика, комедия, приключения, семейный
Режиссер: Энтони Леондис
В ролях: ТиДжей Миллер, Джеймс Корден, Анна Фэрис, Майя Рудольф, Стивен Райт, Дженнифер Кулидж, Патрик Стюарт, Кристина Агилера, София Вергара, Рэйчел
О фильме:
Знаете ли вы, что внутри каждого смартфона есть красочный городок Текстополис, в котором живут эмоджи? И что они ужасно радуются, когда владелец телефона именно их выбирает для своего сообщения? Каждый из эмоджи отвечает лишь за одну эмоцию, и только Джин может выражать несколько эмоций сразу. Он очень хочет стать таким же, как и его собратья, и для этого вместе со своими друзьями пускается в увлекательное путешествие по приложениям телефона в поисках программы, которая поможет ему измениться. Неожиданно герои узнают о грозной опасности, нависшей над городом. Смогут ли друзья спасти Текстополис и всех его обитателей?

Страна: США
Студия: Columbia Pictures, LStar Capital, Sony Pictures Animation
Продолжительность: 01:26:22
Перевод: Дублированный | Лицензия
Файл
Качество: BDRemux 1080p
Видео: MPEG-4 AVC, 1920x1080, 24.6 Mbit/s, 23.976 fps
Звук:
Аудио #01: 48 kHz, AC3, 5.1, 640 Kbps | Дублированный | RUS |
Аудио #02: 48 kHz, AC3, 5.1, 640 Kbps | Дублированный | UKR |
Аудио #03: 48 kHz, DTS-HD MA, 5.1, 2255 Kbps | Оригинал | ENG |
Субтитры: Русские (full), английские

General
Unique ID : 277383083089046922358693154130353481550 (0xD0AE09E04C4534897AE2C8FA8A68674E)
Complete name : G:VideoSSDThe.Emoji.Movie.2017.Lic.BDREMUX.1080p.ExKinoRay.mkv
Format : Matroska
Format version : Version 4 / Version 2
File size : 17.0 GiB
Duration : 1 h 26 min
Overall bit rate mode : Variable
Overall bit rate : 28.1 Mb/s
Movie name : The Emoji Movie 2017 from ExKinoRay
Encoded date : UTC 2018-01-26 04:27:20
Writing application : mkvmerge v20.0.0 ('I Am The Sun') 64-bit
Writing library : libebml v1.3.5 + libmatroska v1.4.8
Video
ID : 1
Format : AVC
Format/Info : Advanced Video Codec
Format profile : [email protected]
Format settings : CABAC / 2 Ref Frames
Format settings, CABAC : Yes
Format settings, ReFrames : 2 frames
Format settings, GOP : M=1, N=10
Codec ID : V_MPEG4/ISO/AVC
Duration : 1 h 26 min
Bit rate mode : Variable
Bit rate : 24.6 Mb/s
Width : 1 920 pixels
Height : 1 080 pixels
Display aspect ratio : 16:9
Frame rate mode : Constant
Frame rate : 23.976 (24000/1001) FPS
Color space : YUV
Chroma subsampling : 4:2:0
Bit depth : 8 bits
Scan type : Progressive
Bits/(Pixel*Frame) : 0.494
Stream size : 14.8 GiB (87%)
Language : English
Default : Yes
Forced : No
Audio #1
ID : 2
Format : AC-3
Format/Info : Audio Coding 3
Codec ID : A_AC3
Duration : 1 h 26 min
Bit rate mode : Constant
Bit rate : 640 kb/s
Channel(s) : 6 channels
Channel positions : Front: L C R, Side: L R, LFE
Sampling rate : 48.0 kHz
Frame rate : 31.250 FPS (1536 SPF)
Bit depth : 16 bits
Compression mode : Lossy
Delay relative to video : 6 ms
Stream size : 395 MiB (2%)
Title : License
Language : Russian
Service kind : Complete Main
Default : Yes
Forced : No
Audio #2
ID : 3
Format : AC-3
Format/Info : Audio Coding 3
Codec ID : A_AC3
Duration : 1 h 26 min
Bit rate mode : Constant
Bit rate : 640 kb/s
Channel(s) : 6 channels
Channel positions : Front: L C R, Side: L R, LFE
Sampling rate : 48.0 kHz
Frame rate : 31.250 FPS (1536 SPF)
Bit depth : 16 bits
Compression mode : Lossy
Delay relative to video : 6 ms
Stream size : 395 MiB (2%)
Title : License
Language : Ukrainian
Service kind : Complete Main
Default : No
Forced : No
Audio #3
ID : 4
Format : DTS
Format/Info : Digital Theater Systems
Format profile : MA / Core
Codec ID : A_DTS
Duration : 1 h 26 min
Bit rate mode : Variable / Constant
Bit rate : 2 255 kb/s / 1 509 kb/s
Channel(s) : 6 channels
Channel positions : Front: L C R, Side: L R, LFE
Sampling rate : 48.0 kHz
Frame rate : 93.750 FPS (512 SPF)
Bit depth : 16 bits
Compression mode : Lossless / Lossy
Stream size : 1.36 GiB (8%)
Title : Original
Language : English
Default : No
Forced : No
Text #1
ID : 5
Format : UTF-8
Codec ID : S_TEXT/UTF8
Codec ID/Info : UTF-8 Plain Text
Duration : 1 h 25 min
Bit rate : 85 b/s
Count of elements : 1228
Stream size : 53.3 KiB (0%)
Title : Full
Language : Russian
Default : No
Forced : No
Text #2
ID : 6
Format : UTF-8
Codec ID : S_TEXT/UTF8
Codec ID/Info : UTF-8 Plain Text
Duration : 1 h 19 min
Bit rate : 64 b/s
Count of elements : 1224
Stream size : 37.6 KiB (0%)
Title : Full
Language : English
Default : No
Forced : No
Text #3
ID : 7
Format : UTF-8
Codec ID : S_TEXT/UTF8
Codec ID/Info : UTF-8 Plain Text
Duration : 1 h 19 min
Bit rate : 84 b/s
Count of elements : 1656
Stream size : 49.0 KiB (0%)
Title : SDH
Language : English
Default : No
Forced : No
Menu
00:00:00.000 : en:Chapter 01
00:05:12.478 : en:Chapter 02
00:11:38.531 : en:Chapter 03
00:15:49.406 : en:Chapter 04
00:22:24.051 : en:Chapter 05
00:26:48.356 : en:Chapter 06
00:32:11.262 : en:Chapter 07
00:39:15.186 : en:Chapter 08
00:44:16.487 : en:Chapter 09
00:48:42.753 : en:Chapter 10
00:53:07.392 : en:Chapter 11
00:58:19.370 : en:Chapter 12
01:02:35.752 : en:Chapter 13
01:07:18.784 : en:Chapter 14
01:11:54.893 : en:Chapter 15
01:16:05.394 : en:Chapter 16

Релиз от: Автор релиза:
Подпишись на меня, кликни по картинке > :



   Похожие торренты   Торрент   Размер 
В этой теме нет новых непрочитанных сообщений. Эмоджи фильм / The Emoji Movie (2017) BDRip 1080p от ExKinoRay | Лицензия

0 | 0

8.14 ГБ

В этой теме нет новых непрочитанных сообщений. Эмоджи фильм / The Emoji Movie (2017) BDRip от ExKinoRay | Лицензия

28 | 0

1.46 ГБ

В этой теме нет новых непрочитанных сообщений. Эмоджи фильм / The Emoji Movie (2017) BDRip 1080p от ExKinoRay | iTunes

446 | 26

7.98 ГБ

В этой теме нет новых непрочитанных сообщений. Эмоджи фильм / The Emoji Movie (2017) BDRip от ExKinoRay | iTunes

277 | 3

1.42 ГБ

В этой теме нет новых непрочитанных сообщений. Эмоджи фильм / The Emoji Movie (2017) BDRip-AVC от New-Team | Лицензия

27 | 1

2.11 ГБ

В этой теме нет новых непрочитанных сообщений. Эмоджи фильм / The Emoji Movie (2017) BDRip-AVC от New-Team | Лицензия

13 | 3

1.36 ГБ

В этой теме нет новых непрочитанных сообщений. Эмоджи фильм / The Emoji Movie (2017) BDRip-AVC от New-Team | Лицензия

25 | 4

746.38 МБ




Вы не можете начинать темы
Вы не можете отвечать на сообщения
Вы не можете редактировать свои сообщения
Вы не можете удалять свои сообщения
Вы не можете добавлять вложения

Перейти:  
Для Мосгорсуда, Роскомнадзора и рекламодателей: mosgorsud-torrent[собачка]yandex.ru
 Вход
ppkBB3cker v.2 © 2008-2014 @ PPK
[ Time : 0.627s | 20 Queries | GZIP : Off ]

cron