img image001 image001 image001 image001 image001 image001 image001 image001 image001 image001 image001 image001 image001 image001 image001
Planets Sun Sun Sun
Статистика раздачи
Автор: Nickolas3434 | Размер: 746.38 МБ | Добавлен: 28 янв 2018
Раздают: 25    Качают: 4
Скачать торрент
Скачать торрент
Описание торрента

СообщениеДобавлено: 28 янв 2018 



Группа New-Team ВКонтакте
Подписывайтесь так же на мою группу ВКонтакте stalkerok | AVC рипы
Ссылка в группе New-Team
Присоединяйтесь!

Эмоджи фильм
The Emoji Movie
«Not Easy Being Meh»


Страна: США
Жанр: мультфильм, фантастика, комедия, приключения, семейный
Год выпуска: 2017
Продолжительность: 01:26:22
Перевод: Профессиональный (полное дублирование) [Blu-ray EUR]
Субтитры: русские (форсированные, полные)
Оригинальная аудиодорожка: нет
Режиссер: Энтони Леондис / Tony Leondis
В ролях: ТиДжей Миллер, Джеймс Корден, Анна Фэрис, Майя Рудольф, Стивен Райт, Дженнифер Кулидж, Патрик Стюарт, Кристина Агилера, София Вергара, Рэйчел Рэй, Шон Хейс, Джейк Т. Остин
Описание:
Знаете ли вы, что внутри каждого смартфона есть красочный городок Текстополис, в котором живут эмоджи? И что они ужасно радуются, когда владелец телефона именно их выбирает для своего сообщения? Каждый из эмоджи отвечает лишь за одну эмоцию, и только Джин может выражать несколько эмоций сразу. Он очень хочет стать таким же, как и его собратья, и для этого вместе со своими друзьями пускается в увлекательное путешествие по приложениям телефона в поисках программы, которая поможет ему измениться. Неожиданно герои узнают о грозной опасности, нависшей над городом. Смогут ли друзья спасти Текстополис и всех его обитателей?

Релиз:
Автор рипа: stalkerok
Сэмпл
Качество видео: BDRip-AVC [The Emoji Movie (2017) Blu-ray Disc [EUR] -BD4U]
Формат видео: MKV
Видео кодек: AVC
Аудио кодек: AC3
Видео: 1805 Кбит/сек, 1082x452 (2.40:1), 23,976 кадр/сек, AVC
Аудио: русский, 448 Кбит/сек, 48 КГц, 5.1, AC3
Навигация по главам: есть

---[Information] [26.01.2018 17:07:11] x264 [info]: frame I:1068 Avg QP:17.58 size: 58732
---[Information] [26.01.2018 17:07:11] x264 [info]: frame P:32108 Avg QP:20.50 size: 18522
---[Information] [26.01.2018 17:07:11] x264 [info]: frame B:91072 Avg QP:22.80 size: 5624
Общее
Уникальный идентификатор : 176088035090035176596861166000285597658 (0x8479526C27CA543FBAC89392397ABFDA)
Полное имя : M:$newThe Emoji Movie (2017)The.Emoji.Movie.2017.BDRip-AVC.RUS.stalkerok.new-team.mkv
Формат : Matroska
Версия формата : Version 4 / Version 2
Размер файла : 1,36 Гбайт
Продолжительность : 1 ч. 26 м.
Общий поток : 2255 Кбит/сек
Название фильма : The Emoji Movie (2017) (Rip by stalkerok)
Дата кодирования : UTC 2018-01-26 15:25:41
Программа кодирования : mkvmerge v8.6.1 ('Flying') 64bit
Библиотека кодирования : libebml v1.3.3 + libmatroska v1.4.4
Видео
Идентификатор : 1
Формат : AVC
Формат/Информация : Advanced Video Codec
Профиль формата : [email protected]
Параметр CABAC формата : Да
Параметр ReFrames формата : 12 кадров
Идентификатор кодека : V_MPEG4/ISO/AVC
Продолжительность : 1 ч. 26 м.
Битрейт : 1806 Кбит/сек
Ширина : 1082 пикселя
Высота : 452 пикселя
Соотношение сторон : 2,40:1
Режим частоты кадров : Постоянный
Частота кадров : 23,976 (24000/1001) кадра/сек
Цветовое пространство : YUV
Субдискретизация насыщенности : 4:2:0
Битовая глубина : 8 бит
Тип развёртки : Прогрессивная
Бит/(Пиксели*Кадры) : 0.154
Размер потока : 1,09 Гбайт (80%)
Заголовок : The Emoji Movie (2017) (Rip by stalkerok)
Библиотека кодирования : x264 core 152 r2851kMod ba24899
Настройки программы : cabac=1 / ref=12 / deblock=1:-1:-1 / analyse=0x3:0x133 / me=umh / subme=11 / psy=1 / fade_compensate=0.00 / psy_rd=1.00:0.00 / mixed_ref=1 / me_range=32 / chroma_me=1 / trellis=2 / 8x8dct=1 / cqm=0 / deadzone=21,11 / fast_pskip=0 / chroma_qp_offset=-2 / threads=12 / lookahead_threads=3 / sliced_threads=0 / nr=0 / decimate=1 / interlaced=0 / bluray_compat=0 / constrained_intra=0 / bframes=15 / b_pyramid=2 / b_adapt=2 / b_bias=0 / direct=3 / weightb=1 / open_gop=0 / weightp=2 / keyint=240 / keyint_min=23 / scenecut=40 / intra_refresh=0 / rc_lookahead=60 / rc=crf / mbtree=0 / crf=18.5000 / qcomp=0.65 / qpmin=0 / qpmax=69 / qpstep=4 / vbv_maxrate=50000 / vbv_bufsize=62500 / crf_max=0.0 / nal_hrd=none / filler=0 / ip_ratio=1.40 / pb_ratio=1.30 / aq=3:0.85 / zones=115432,124247,q=36
Default : Да
Forced : Нет
Аудио
Идентификатор : 2
Формат : AC-3
Формат/Информация : Audio Coding 3
Расширение режима : CM (complete main)
Параметр Endianness формата : Big
Идентификатор кодека : A_AC3
Продолжительность : 1 ч. 26 м.
Вид битрейта : Постоянный
Битрейт : 448 Кбит/сек
Каналы : 6 каналов
Расположение каналов : Front: L C R, Side: L R, LFE
Частота : 48,0 КГц
Частота кадров : 31,250 кадров/сек (1536 spf)
Метод сжатия : С потерями
Размер потока : 277 Мбайт (20%)
Язык : Russian
Default : Да
Forced : Нет
Текст #1
Идентификатор : 3
Формат : UTF-8
Идентификатор кодека : S_TEXT/UTF8
Идентификатор кодека/Информация : UTF-8 Plain Text
Продолжительность : 56 м.
Битрейт : 0 бит/сек
Count of elements : 7
Размер потока : 282 байт (0%)
Заголовок : Forced
Язык : Russian
Default : Да
Forced : Нет
Текст #2
Идентификатор : 4
Формат : UTF-8
Идентификатор кодека : S_TEXT/UTF8
Идентификатор кодека/Информация : UTF-8 Plain Text
Продолжительность : 1 ч. 25 м.
Битрейт : 85 бит/сек
Count of elements : 1228
Размер потока : 53,3 Кбайт (0%)
Язык : Russian
Default : Нет
Forced : Нет
Меню
00:00:00.000 : en:Chapter 1
00:05:12.478 : en:Chapter 2
00:11:38.531 : en:Chapter 3
00:15:49.406 : en:Chapter 4
00:22:24.051 : en:Chapter 5
00:26:48.607 : en:Chapter 6
00:32:11.137 : en:Chapter 7
00:39:15.186 : en:Chapter 8
00:44:16.695 : en:Chapter 9
00:48:43.128 : en:Chapter 10
00:53:07.392 : en:Chapter 11
00:58:19.370 : en:Chapter 12
01:02:35.752 : en:Chapter 13
01:07:18.909 : en:Chapter 14
01:11:54.893 : en:Chapter 15
01:16:05.477 : en:Chapter 16





   Похожие торренты   Торрент   Размер 
В этой теме нет новых непрочитанных сообщений. Эмоджи фильм / The Emoji Movie (2017) BDRip-AVC от New-Team | Лицензия

27 | 1

2.11 ГБ

В этой теме нет новых непрочитанных сообщений. Эмоджи фильм / The Emoji Movie (2017) BDRip-AVC от New-Team | Лицензия

13 | 3

1.36 ГБ

В этой теме нет новых непрочитанных сообщений. Эмоджи фильм / The Emoji Movie (2017) BDRip от ExKinoRay | Лицензия

34 | 0

1.46 ГБ

В этой теме нет новых непрочитанных сообщений. Эмоджи фильм / The Emoji Movie (2017) BDRip 1080p от ExKinoRay | Лицензия

0 | 0

8.14 ГБ

В этой теме нет новых непрочитанных сообщений. Эмоджи фильм / The Emoji Movie (2017) BDRip 720p от KinoGadget | iPad | Лицензия

37 | 7

1.46 ГБ

В этой теме нет новых непрочитанных сообщений. Эмоджи фильм / The Emoji Movie (2017) BDRemux 1080p от ExKinoRay | Лицензия

0 | 0

16.95 ГБ

В этой теме нет новых непрочитанных сообщений. Эмоджи фильм / The Emoji Movie (2017) BDRip от MegaPeer | iTunes

0 | 0

1.42 ГБ




Вы не можете начинать темы
Вы не можете отвечать на сообщения
Вы не можете редактировать свои сообщения
Вы не можете удалять свои сообщения
Вы не можете добавлять вложения

Перейти:  
Для Мосгорсуда, Роскомнадзора и рекламодателей: mosgorsud-torrent[собачка]yandex.ru
 Вход
ppkBB3cker v.2 © 2008-2014 @ PPK
[ Time : 0.071s | 18 Queries | GZIP : Off ]

cron